Скачать через торрент музыку Donald Byrd - At the Blue Note Cafe, Vol. 1 & 2 {RVG Edition 2003} - 1960, FLAC бесплатно без регистрации torrent

Если у вас наблюдаются проблемы со скриншотами, переходом по ссылками, скачиванием торрентов - проблемы в блокировщике рекламы AdBlock. #хорошегоДня!


Статистика раздачи
Размер:  981 MB   |    Зарегистрирован:  5 лет 8 месяцев   |    .torrent скачан:  34 раза   |   
Раздают:  1  
   
Загрузка...
 
Автор Сообщение

Umakiro

avatar Umakiro


Donald Byrd - At the Half Note Cafe, Vol. 1 & 2 {RVG Edition 2003}

Жанр: Bop, Soul Jazz
Дата записи альбома: 1960
Год выпуска: 2003
Производитель диска: Blue Note, RVG Edition 2003
Тип записи: Live
Аудио кодек: FLAC
Тип рипа: tracks+.cue
Битрейт аудио: lossless
Продолжительность: 01:03:00 & 00:58:35
Источник: найдено в сети, релизер psuchris.

Трэклист:

Disc 1:

01. Introduction by Ruth Mason Lion (1:22)
02. My Girl Shirl (10:32)
03. Soulful Kiddy (10:07)
04. A Portrait of Jennie (6:49)
05. Cecile (12:53)
06. Theme (Pure D. Funk) (1:54)
07. Child's Play (8:43)
08. Chant (11:06)

Disc 2:

01. Jeannine (13:09)
02. Pure D. Funk (6:16)
03. Kimyas (11:58)
04. When Sunny Gets Blue (6:23)
05. Between the Devil and the Deep Blue Sea (9:57)
06. Theme from Mr Lucky (10:53)

Состав:

Donald Byrd - Trumpet
Pepper Adams - Baritone Sax
Duke Pearson - Piano
Laymon Jackson - Bass
Lex Humphries - Drums

Аудио сэмплы на Amazon.com и Allmusic.com (Disc 1 | Disc 2).
Присутствуют сканы высокого разрешения, 300dpi, png.
 
Exact Audio Copy V0.99 prebeta 3 from 28. July 2007

EAC extraction logfile from 2. November 2007, 16:38

Donald Byrd / At the Half Note Cafe 1960 CD 1

Used drive : TSSTcorpCD/DVDW SH-S162L Adapter: 1 ID: 0

Read mode : SecureUtilize accurate stream : YesDefeat audio cache : YesMake use of C2 pointers : No

Read offset correction : 6Overread into Lead-In and Lead-Out : NoFill up missing offset samples with silence : YesDelete leading and trailing silent blocks : NoNull samples used in CRC calculations : YesUsed interface : Native Win32 interface for Win NT & 2000Gap handling : Appended to previous track

Used output format : User Defined EncoderSelected bitrate : 192 kBit/sQuality : HighAdd ID3 tag : NoCommand line compressor : C:\Program Files\Exact Audio Copy\flac-1.1.4-win\bin\flac.exeAdditional command line options : -8 -A tukey(0.25) -A gauss(0.1875) -b 4096 -V -T "artist=%a" -T "title=%t" -T "album=%g" -T "date=%y" -T "tracknumber=%n" -T "genre=%m" %s --sector-align

TOC of the extracted CD

Track | Start | Length | Start sector | End sector --------------------------------------------------------- 1 | 0:00.00 | 1:21.62 | 0 | 6136 2 | 1:21.62 | 10:32.02 | 6137 | 53538 3 | 11:53.64 | 10:06.53 | 53539 | 99041 4 | 22:00.42 | 6:49.10 | 99042 | 129726 5 | 28:49.52 | 12:52.39 | 129727 | 187665 6 | 41:42.16 | 1:53.58 | 187666 | 196198 7 | 43:35.74 | 8:42.74 | 196199 | 235422 8 | 52:18.73 | 11:05.55 | 235423 | 285352

Track 1

Filename C:\Documents and Settings\Administrator\Desktop\EAC temp\01 - Introduction by Ruth Mason Lion.wav

Pre-gap length 0:00:02.00

Peak level 97.9 % Track quality 100.0 % Test CRC 245DFEDE Copy CRC 245DFEDE Accurately ripped (confidence 1) [C75164FB] Copy OK

Track 2

Filename C:\Documents and Settings\Administrator\Desktop\EAC temp\02 - My Girl Shirl.wav

Peak level 97.9 % Track quality 100.0 % Test CRC 5AC2CC1B Copy CRC 5AC2CC1B Accurately ripped (confidence 1) [B0A2ADDC] Copy OK

Track 3

Filename C:\Documents and Settings\Administrator\Desktop\EAC temp\03 - Soulful Kiddy.wav

Peak level 98.0 % Track quality 100.0 % Test CRC 10CA9972 Copy CRC 10CA9972 Accurately ripped (confidence 1) [F66947F4] Copy OK

Track 4

Filename C:\Documents and Settings\Administrator\Desktop\EAC temp\04 - A Portrait of Jennie.wav

Peak level 97.9 % Track quality 100.0 % Test CRC A922058A Copy CRC A922058A Accurately ripped (confidence 1) [BB73424C] Copy OK

Track 5

Filename C:\Documents and Settings\Administrator\Desktop\EAC temp\05 - Cecile.wav

Peak level 97.9 % Track quality 100.0 % Test CRC F3E42FAC Copy CRC F3E42FAC Accurately ripped (confidence 1) [A25A8A4D] Copy OK

Track 6

Filename C:\Documents and Settings\Administrator\Desktop\EAC temp\06 - Theme (Pure D. Funk).wav

Peak level 97.9 % Track quality 100.0 % Test CRC 4263A91E Copy CRC 4263A91E Accurately ripped (confidence 1) [2DAE2A45] Copy OK

Track 7

Filename C:\Documents and Settings\Administrator\Desktop\EAC temp\07 - Child's Play.wav

Pre-gap length 0:00:02.48

Peak level 98.0 % Track quality 99.9 % Test CRC FBC1ABD1 Copy CRC FBC1ABD1 Accurately ripped (confidence 1) [C70D10A4] Copy OK

Track 8

Filename C:\Documents and Settings\Administrator\Desktop\EAC temp\08 - Chant.wav

Peak level 98.0 % Track quality 100.0 % Test CRC C0F2C583 Copy CRC C0F2C583 Accurately ripped (confidence 1) [7B4D99F3] Copy OK

All tracks accurately ripped

No errors occurred

End of status report
 
REM GENRE JazzREM DATE 1960REM DISCID 510EDC08REM COMMENT "ExactAudioCopy v0.99pb3"PERFORMER "Donald Byrd"TITLE "At the Half Note Cafe 1960 CD 1 "FILE "01 - Introduction by Ruth Mason Lion.wav" WAVE TRACK 01 AUDIO TITLE "Introduction by Ruth Mason Lion" PERFORMER "Donald Byrd" INDEX 01 00:00:00FILE "02 - My Girl Shirl.wav" WAVE TRACK 02 AUDIO TITLE "My Girl Shirl" PERFORMER "Donald Byrd" INDEX 01 00:00:00FILE "03 - Soulful Kiddy.wav" WAVE TRACK 03 AUDIO TITLE "Soulful Kiddy" PERFORMER "Donald Byrd" INDEX 01 00:00:00FILE "04 - A Portrait of Jennie.wav" WAVE TRACK 04 AUDIO TITLE "A Portrait of Jennie" PERFORMER "Donald Byrd" INDEX 01 00:00:00FILE "05 - Cecile.wav" WAVE TRACK 05 AUDIO TITLE "Cecile" PERFORMER "Donald Byrd" INDEX 01 00:00:00FILE "06 - Theme (Pure D. Funk).wav" WAVE TRACK 06 AUDIO TITLE "Theme (Pure D. Funk)" PERFORMER "Donald Byrd" INDEX 01 00:00:00 TRACK 07 AUDIO TITLE "Child's Play" PERFORMER "Donald Byrd" INDEX 00 01:51:22FILE "07 - Child's Play.wav" WAVE INDEX 01 00:00:00FILE "08 - Chant.wav" WAVE TRACK 08 AUDIO TITLE "Chant" PERFORMER "Donald Byrd" INDEX 01 00:00:00
820813369 14434268 01 - Introduction by Ruth Mason Lion.wav
757242092 111489548 02 - My Girl Shirl.wav
128170702 107023100 03 - Soulful Kiddy.wav
382274393 72171164 04 - A Portrait of Jennie.wav
477485011 136272572 05 - Cecile.wav
4204302702 20069660 06 - Theme (Pure D. Funk).wav
1639082368 92254892 07 - Child's Play.wav
3574109354 117435404 08 - Chant.wav

auCDtect: CD records authenticity detector, version 0.8.2
Copyright (c) 2004 Oleg Berngardt. All rights reserved.
Copyright (c) 2004 Alexander Djourik. All rights reserved.
------------------------------------------------------------
Processing file: [01 - Introduction by Ruth Mason Lion.wav]

------------------------------------------------------------
This track looks like CDDA with probability 100%

------------------------------------------------------------
Processing file: [02 - My Girl Shirl.wav]

------------------------------------------------------------
This track looks like CDDA with probability 100%

------------------------------------------------------------
Processing file: [03 - Soulful Kiddy.wav]

------------------------------------------------------------
This track looks like CDDA with probability 100%

------------------------------------------------------------
Processing file: [04 - A Portrait of Jennie.wav]

------------------------------------------------------------
This track looks like CDDA with probability 100%

------------------------------------------------------------
Processing file: [05 - Cecile.wav]

------------------------------------------------------------
This track looks like CDDA with probability 100%

------------------------------------------------------------
Processing file: [06 - Theme (Pure D. Funk).wav]

------------------------------------------------------------
This track looks like CDDA with probability 100%

------------------------------------------------------------
Processing file: [07 - Child's Play.wav]

------------------------------------------------------------
This track looks like CDDA with probability 99%

------------------------------------------------------------
Processing file: [08 - Chant.wav]

------------------------------------------------------------
This track looks like CDDA with probability 100%

------------------------------------------------------------
Final Conclusion:
------------------------------------------------------------
These tracks looks like CDDA with probability 100%
 
Exact Audio Copy V0.99 prebeta 3 from 28. July 2007

EAC extraction logfile from 2. November 2007, 16:59

Donald Byrd / At the Half Note Cafй 1960 CD 2

Used drive : TSSTcorpCD/DVDW SH-S162L Adapter: 1 ID: 0

Read mode : SecureUtilize accurate stream : YesDefeat audio cache : YesMake use of C2 pointers : No

Read offset correction : 6Overread into Lead-In and Lead-Out : NoFill up missing offset samples with silence : YesDelete leading and trailing silent blocks : NoNull samples used in CRC calculations : YesUsed interface : Native Win32 interface for Win NT & 2000Gap handling : Appended to previous track

Used output format : User Defined EncoderSelected bitrate : 192 kBit/sQuality : HighAdd ID3 tag : NoCommand line compressor : C:\Program Files\Exact Audio Copy\flac-1.1.4-win\bin\flac.exeAdditional command line options : -8 -A tukey(0.25) -A gauss(0.1875) -b 4096 -V -T "artist=%a" -T "title=%t" -T "album=%g" -T "date=%y" -T "tracknumber=%n" -T "genre=%m" %s --sector-align

TOC of the extracted CD

Track | Start | Length | Start sector | End sector --------------------------------------------------------- 1 | 0:00.00 | 13:09.29 | 0 | 59203 2 | 13:09.29 | 6:15.61 | 59204 | 87389 3 | 19:25.15 | 11:58.15 | 87390 | 141254 4 | 31:23.30 | 6:22.42 | 141255 | 169946 5 | 37:45.72 | 9:56.64 | 169947 | 214710 6 | 47:42.61 | 10:52.40 | 214711 | 263650

Track 1

Filename C:\Documents and Settings\Administrator\Desktop\EAC temp\01 - Jeannine.wav

Pre-gap length 0:00:02.00

Peak level 97.9 % Track quality 100.0 % Test CRC D35800CF Copy CRC D35800CF Accurately ripped (confidence 1) [9A668181] Copy OK

Track 2

Filename C:\Documents and Settings\Administrator\Desktop\EAC temp\02 - Pure D. Funk.wav

Peak level 97.9 % Track quality 100.0 % Test CRC 1EBBF8E6 Copy CRC 1EBBF8E6 Accurately ripped (confidence 1) [8AFA2CE9] Copy OK

Track 3

Filename C:\Documents and Settings\Administrator\Desktop\EAC temp\03 - Kimyas.wav

Pre-gap length 0:00:02.53

Peak level 97.9 % Track quality 100.0 % Test CRC 3C170848 Copy CRC 3C170848 Accurately ripped (confidence 1) [0DCA6393] Copy OK

Track 4

Filename C:\Documents and Settings\Administrator\Desktop\EAC temp\04 - When Sunny Gets Blue.wav

Peak level 97.9 % Track quality 99.9 % Test CRC 72255722 Copy CRC 72255722 Accurately ripped (confidence 1) [81F8959D] Copy OK

Track 5

Filename C:\Documents and Settings\Administrator\Desktop\EAC temp\05 - Between the Devil and the Deep Blue Sea.wav

Pre-gap length 0:00:02.49

Peak level 97.9 % Track quality 100.0 % Test CRC 56FA76B1 Copy CRC 56FA76B1 Accurately ripped (confidence 1) [7F7942C9] Copy OK

Track 6

Filename C:\Documents and Settings\Administrator\Desktop\EAC temp\06 - Theme from Mr Lucky.wav

Pre-gap length 0:00:02.61

Peak level 97.9 % Track quality 99.9 % Test CRC BADA77EF Copy CRC BADA77EF Accurately ripped (confidence 1) [6D3D9F48] Copy OK

All tracks accurately ripped

No errors occurred

End of status report
 
REM GENRE JazzREM DATE 1960REM DISCID 5D0DBB06REM COMMENT "ExactAudioCopy v0.99pb3"PERFORMER "Donald Byrd"TITLE "At the Half Note Cafй 1960 CD 2"FILE "01 - Jeannine.wav" WAVE TRACK 01 AUDIO TITLE "Jeannine" PERFORMER "Donald Byrd" INDEX 01 00:00:00FILE "02 - Pure D. Funk.wav" WAVE TRACK 02 AUDIO TITLE "Pure D. Funk" PERFORMER "Donald Byrd" INDEX 01 00:00:00 TRACK 03 AUDIO TITLE "Kimyas" PERFORMER "Donald Byrd" INDEX 00 06:13:21FILE "03 - Kimyas.wav" WAVE INDEX 01 00:00:00FILE "04 - When Sunny Gets Blue.wav" WAVE TRACK 04 AUDIO TITLE "When Sunny Gets Blue" PERFORMER "Donald Byrd" INDEX 01 00:00:00 TRACK 05 AUDIO TITLE "Between the Devil and the Deep Blue Sea" PERFORMER "Donald Byrd" INDEX 00 06:20:05FILE "05 - Between the Devil and the Deep Blue Sea.wav" WAVE INDEX 01 00:00:00 TRACK 06 AUDIO TITLE "Theme from Mr Lucky" PERFORMER "Donald Byrd" INDEX 00 09:54:18FILE "06 - Theme from Mr Lucky.wav" WAVE INDEX 01 00:00:00
4164798096 139247852 01 - Jeannine.wav
4241840928 66293516 02 - Pure D. Funk.wav
199214128 126690524 03 - Kimyas.wav
2516310321 67483628 04 - When Sunny Gets Blue.wav
462886038 105284972 05 - Between the Devil and the Deep Blue Sea.wav
3388954524 115106924 06 - Theme from Mr Lucky.wav

auCDtect: CD records authenticity detector, version 0.8.2
Copyright (c) 2004 Oleg Berngardt. All rights reserved.
Copyright (c) 2004 Alexander Djourik. All rights reserved.
------------------------------------------------------------
Processing file: [01 - Jeannine.wav]

------------------------------------------------------------
This track looks like CDDA with probability 100%

------------------------------------------------------------
Processing file: [02 - Pure D. Funk.wav]

------------------------------------------------------------
This track looks like CDDA with probability 100%

------------------------------------------------------------
Processing file: [03 - Kimyas.wav]

------------------------------------------------------------
This track looks like CDDA with probability 100%

------------------------------------------------------------
Processing file: [04 - When Sunny Gets Blue.wav]

------------------------------------------------------------
This track looks like CDDA with probability 100%

------------------------------------------------------------
Processing file: [05 - Between the Devil and the Deep Blue Sea.wav]

------------------------------------------------------------
This track looks like CDDA with probability 100%

------------------------------------------------------------
Processing file: [06 - Theme from Mr Lucky.wav]

------------------------------------------------------------
This track looks like CDDA with probability 100%

------------------------------------------------------------
Final Conclusion:
------------------------------------------------------------
These tracks looks like CDDA with probability 100%


Трекер:  [ 28-Янв-2012 10:31 ]

  

Скачать .torrent

Размер .torrent файла 21 KB


Размер: 981 MB
Хэш (hash) релиза: 5afd589544000f6482066a2e77cadf1aeb22fd7c

Еще никто не оставлял запись к записи скачать торрент Donald Byrd - At the Blue Note Cafe, Vol. 1 & 2 {RVG Edition 2003} - 1960, FLAC . Будь первым!

!Обратная связь