Скачать через торрент музыку Donald Byrd - Mustang! - 1966, FLAC бесплатно без регистрации torrent

Если у вас наблюдаются проблемы со скриншотами, переходом по ссылками, скачиванием торрентов - проблемы в блокировщике рекламы AdBlock. #хорошегоДня!


Статистика раздачи
Размер:  366 MB   |    Зарегистрирован:  5 лет 8 месяцев   |    .torrent скачан:  38 раз   |   
Раздают:  1  
   
Загрузка...
 
Автор Сообщение

Umakiro

avatar Umakiro


Donald Byrd / Mustang!

Жанр: Jazz Hard Bop
Страна-производитель диска: USA
Год издания диска: 1966
Издатель (лейбл): BLUE NOTE
Номер по каталогу: 59963
Страна: USA
Аудио кодек: FLAC (*.flac)
Тип рипа: tracks+.cue
Битрейт аудио: lossless
Продолжительность: 51:59
Наличие сканов в содержимом раздачи: да
Треклист:
01. Mustang
02. Fly Little Bird Fly
03. I Got It Bad and That Ain't Good
04. Dixie Lee
05. On the Trail
06. I'm So Excited by You
07. Gingerbread Boy*
08. I'm So Excited By You (First Version)*

*previously unissued

Recorded at Rudy Van Gelder Studio, Englewood Cliffs, NJ on November 18, 1964 (tracks 7 & 8) & June 24, 1966 (tracks 1-6)
 
EAC extraction logfile from 31. January 2007, 18:51 for CDDonald Byrd / Mustang

Used drive : HL-DT-STDVDRAM GSA-4163B Adapter: 1 ID: 1Read mode : Secure with NO C2, accurate stream, disable cacheRead offset correction : 667Overread into Lead-In and Lead-Out : No

Used output format : Internal WAV Routines 44.100 Hz; 16 Bit; Stereo

Other options : Fill up missing offset samples with silence : Yes Delete leading and trailing silent blocks : No Installed external ASPI interface

Track 1 Filename D:\Donald Byrd - Mustang (1966)[FLAC]{BN Classic}\01 - Mustang.wav

Pre-gap length 0:00:02.00

Peak level 97.3 % Track quality 99.9 % Test CRC 7DD774CE Copy CRC 7DD774CE Copy OK

Track 2 Filename D:\Donald Byrd - Mustang (1966)[FLAC]{BN Classic}\02 - Fly Little Bird Fly.wav

Peak level 98.4 % Track quality 100.0 % Test CRC 1EEDAEC3 Copy CRC 1EEDAEC3 Copy OK

Track 3 Filename D:\Donald Byrd - Mustang (1966)[FLAC]{BN Classic}\03 - I Got It Bad & That Ain't Good.wav

Pre-gap length 0:00:03.16

Peak level 93.2 % Track quality 100.0 % Test CRC C228F7E4 Copy CRC C228F7E4 Copy OK

Track 4 Filename D:\Donald Byrd - Mustang (1966)[FLAC]{BN Classic}\04 - Dixie Lee.wav

Pre-gap length 0:00:02.54

Peak level 93.3 % Track quality 99.9 % Test CRC 6E2C87A3 Copy CRC 6E2C87A3 Copy OK

Track 5 Filename D:\Donald Byrd - Mustang (1966)[FLAC]{BN Classic}\05 - On The Trail.wav

Pre-gap length 0:00:03.16

Peak level 98.8 % Track quality 100.0 % Test CRC 3ED8CACA Copy CRC 3ED8CACA Copy OK

Track 6 Filename D:\Donald Byrd - Mustang (1966)[FLAC]{BN Classic}\06 - I'm So Excited By You.wav

Pre-gap length 0:00:03.16

Peak level 97.8 % Track quality 100.0 % Test CRC 09AB7E9B Copy CRC 09AB7E9B Copy OK

Track 7 Filename D:\Donald Byrd - Mustang (1966)[FLAC]{BN Classic}\07 - Gingerbread Boy.wav

Pre-gap length 0:00:03.28

Peak level 98.8 % Track quality 100.0 % Test CRC 09BEDEB9 Copy CRC 09BEDEB9 Copy OK

Track 8 Filename D:\Donald Byrd - Mustang (1966)[FLAC]{BN Classic}\08 - I'm So Excite By You (First Version).wav

Pre-gap length 0:00:02.59

Peak level 96.8 % Track quality 100.0 % Test CRC 4A649C3D Copy CRC 4A649C3D Copy OK

No errors occured

End of status report
 
REM GENRE JazzREM DATE 1966REM DISCID 6A0D3908REM COMMENT "ExactAudioCopy v0.95b2"PERFORMER "Donald Byrd"TITLE "Mustang"FILE "01 - Mustang.wav" WAVE TRACK 01 AUDIO TITLE "Mustang" PERFORMER "Donald Byrd" INDEX 01 00:00:00FILE "02 - Fly Little Bird Fly.wav" WAVE TRACK 02 AUDIO TITLE "Fly Little Bird Fly" PERFORMER "Donald Byrd" INDEX 01 00:00:00 TRACK 03 AUDIO TITLE "I Got It Bad & That Ain't Good" PERFORMER "Donald Byrd" INDEX 00 05:24:24FILE "03 - I Got It Bad & That Ain't Good.wav" WAVE INDEX 01 00:00:00 TRACK 04 AUDIO TITLE "Dixie Lee" PERFORMER "Donald Byrd" INDEX 00 05:52:21FILE "04 - Dixie Lee.wav" WAVE INDEX 01 00:00:00 TRACK 05 AUDIO TITLE "On The Trail" PERFORMER "Donald Byrd" INDEX 00 06:40:42FILE "05 - On The Trail.wav" WAVE INDEX 01 00:00:00 TRACK 06 AUDIO TITLE "I'm So Excited By You" PERFORMER "Donald Byrd" INDEX 00 07:41:39FILE "06 - I'm So Excited By You.wav" WAVE INDEX 01 00:00:00 TRACK 07 AUDIO TITLE "Gingerbread Boy" PERFORMER "Donald Byrd" INDEX 00 05:38:39FILE "07 - Gingerbread Boy.wav" WAVE INDEX 01 00:00:00 TRACK 08 AUDIO TITLE "I'm So Excite By You (First Version)" PERFORMER "Donald Byrd" INDEX 00 08:59:04FILE "08 - I'm So Excite By You (First Version).wav" WAVE INDEX 01 00:00:00
 
AUDIOCHECKER v2.0 beta (build 457) - by Dester - opdester@freemail.hu~~~~~~~~~~~~~~~~~~~~~~~~~~~~~~~~~~

Started at: ñóááîòà, 27. 11. 2010. - 15:53.318 files found

1 -===- M:\Jazz\Donald Byrd - Mustang (1966)\01 - Mustang.flac Extracted successfully Conclusion: this track is CDDA with probability 100% Tempfile successfully deleted.

2 -===- M:\Jazz\Donald Byrd - Mustang (1966)\02 - Fly Little Bird Fly.flac Extracted successfully Conclusion: this track is CDDA with probability 100% Tempfile successfully deleted.

3 -===- M:\Jazz\Donald Byrd - Mustang (1966)\03 - I Got It Bad & That Ain't Good.flac Extracted successfully Conclusion: this track is CDDA with probability 100% Tempfile successfully deleted.

4 -===- M:\Jazz\Donald Byrd - Mustang (1966)\04 - Dixie Lee.flac Extracted successfully Conclusion: this track is CDDA with probability 100% Tempfile successfully deleted.

5 -===- M:\Jazz\Donald Byrd - Mustang (1966)\05 - On The Trail.flac Extracted successfully Conclusion: this track is CDDA with probability 99% Tempfile successfully deleted.

6 -===- M:\Jazz\Donald Byrd - Mustang (1966)\06 - I'm So Excited By You.flac Extracted successfully Conclusion: this track is CDDA with probability 100% Tempfile successfully deleted.

7 -===- M:\Jazz\Donald Byrd - Mustang (1966)\07 - Gingerbread Boy.flac Extracted successfully Conclusion: this track is CDDA with probability 100% Tempfile successfully deleted.

8 -===- M:\Jazz\Donald Byrd - Mustang (1966)\08 - I'm So Excite By You (First Version).flac Extracted successfully Conclusion: this track is CDDA with probability 100% Tempfile successfully deleted.

Finished at: 27. 11. 2010. - 15:59.10 (operation time: 0:05.39)
"Mustang" may not be the most famous hard-bop stallion from the Blue Note stables in the '50s and '60s, but it's highly enjoyable and emblematic of the genre. A bluesy melody with a Bo Diddley beat, a rhythm section masterfully driven by Waits's drums, a funky piano and efficient horn riffs. What more do you need to have everybody stamp their feet and snap their fingers? While the solos are not all memorable, they are always honest and in the groove. And "Mustang" even provides a bit of jazz trivia that will allow you to show off about this tune: it was written by altoist Sonny Red – who solos first – and signed with his real name: Sylvester Kyner.

Reviewer: Thierry Quénum "Mustang" may not be the most famous hard-bop stallion from the Blue Note stables in the '50s and '60s, but it's highly enjoyable and emblematic of the genre. A bluesy melody with a Bo Diddley beat, a rhythm section masterfully driven by Waits's drums, a funky piano and efficient horn riffs. What more do you need to have everybody stamp their feet and snap their fingers? While the solos are not all memorable, they are always honest and in the groove. And "Mustang" even provides a bit of jazz trivia that will allow you to show off about this tune: it was written by altoist Sonny Red – who solos first – and signed with his real name: Sylvester Kyner.

Reviewer: Thierry Quénum "Mustang" may not be the most famous hard-bop stallion from the Blue Note stables in the '50s and '60s, but it's highly enjoyable and emblematic of the genre. A bluesy melody with a Bo Diddley beat, a rhythm section masterfully driven by Waits's drums, a funky piano and efficient horn riffs. What more do you need to have everybody stamp their feet and snap their fingers? While the solos are not all memorable, they are always honest and in the groove. And "Mustang" even provides a bit of jazz trivia that will allow you to show off about this tune: it was written by altoist Sonny Red – who solos first – and signed with his real name: Sylvester Kyner.

"Mustang" may not be the most famous hard-bop stallion from the Blue Note stables in the '50s and '60s, but it's highly enjoyable and emblematic of the genre. A bluesy melody with a Bo Diddley beat, a rhythm section masterfully driven by Waits's drums, a funky piano and efficient horn riffs. What more do you need to have everybody stamp their feet and snap their fingers? While the solos are not all memorable, they are always honest and in the groove. And "Mustang" even provides a bit of jazz trivia that will allow you to show off about this tune: it was written by altoist Sonny Red – who solos first – and signed with his real name: Sylvester Kyner.

Reviewer: Thierry Quénum
Donald Byrd - trumpet
Sonny Red - alto saxophone (tracks 1-6)
Jimmy Heath (tracks 7 & 8), Hank Mobley (tracks 1-6) - tenor saxophone
McCoy Tyner - piano
Walter Booker - bass
Joe Chambers (tracks 7 & 8), Freddie Waits (tracks 1-6) - drums
Происхождение: скачан из сети

Трекер:  [ 28-Янв-2012 10:30 ]

  

Скачать .torrent

Размер .torrent файла 15 KB


Размер: 366 MB
Хэш (hash) релиза: 20d85293f6fa4a6c20816280ca3b1e6b27d391c7

Еще никто не оставлял запись к записи скачать торрент Donald Byrd - Mustang! - 1966, FLAC . Будь первым!

!Обратная связь