Скачать через торрент музыку Donald Byrd - Royal Flush {RVG Edition} - 1961, FLAC бесплатно без регистрации torrent

Если у вас наблюдаются проблемы со скриншотами, переходом по ссылками, скачиванием торрентов - проблемы в блокировщике рекламы AdBlock. #хорошегоДня!


Статистика раздачи
Размер:  291 MB   |    Зарегистрирован:  5 лет 8 месяцев   |    .torrent скачан:  26 раз   |   
Раздают:  1  
   
Загрузка...
 
Автор Сообщение

Umakiro

avatar Umakiro


Donald Byrd - Royal Flush {RVG Edition}

Жанр: Jazz, Hard Bop
Год выпуска диска: 1961
Производитель диска: USA
Аудио кодек: FLAC
Тип рипа: image+.cue
Битрейт аудио: lossless
Продолжительность: 41:03
Лейбл: Blue Note

Трэклист:
1 Hush
2 I'm a Fool to Want You
3 Jorgie's
4 Shangri-La
5 6 M's
6 Requiem

Музыканты:
Donald Byrd, trumpet
Pepper Adams, baritone sax
Herbie Hancock, piano
Butch Warren, bass
Billy Higgins, drums
Exact Audio Copy V0.99 prebeta 4 from 23. January 2008

Отчёт EAC об извлечении, выполненном 4. февраля 2009, 18:37

Donald Byrd / Royal Flush

Дисковод: _NEC NR-7900A Adapter: 3 ID: 1

Режим чтения : Достоверность
Использование точного потока : Да
Отключение кэша аудио : Да
Использование указателей C2 : Нет

Коррекция смещения при чтении : 685
Способность читать области Lead-in и Lead-out : Нет
Заполнение пропущенных сэмплов тишиной : Да
Удаление блоков с тишиной в начале и конце : Нет
При вычислениях CRC использовались нулевые сэмплы : Да
Интерфейс : Установленный внешний ASPI-интерфейс

Выходной формат : Пользовательский кодировщик
Выбранный битрейт : 768 kBit/s
Качество : Высокий
Добавление ID3-тэга : Нет
Утилита сжатия : C:\Program Files\Exact Audio Copy\FLAC\FLAC.EXE
Дополнительные параметры : -6 -V -T "ARTIST=%a" -T "TITLE=%t" -T "ALBUM=%g" -T "DATE=%y" -T "TRACKNUMBER=%n" -T "GENRE=%m" -T "COMMENT=%e" %s -o %d

TOC извлечённого CD

Трек | Старт | Длительность | Начальный сектор | Конечный сектор
---------------------------------------------------------------------
1 | 0:00.00 | 6:24.48 | 0 | 28847
2 | 6:24.48 | 6:15.59 | 28848 | 57031
3 | 12:40.32 | 8:07.64 | 57032 | 93620
4 | 20:48.21 | 6:37.36 | 93621 | 123431
5 | 27:25.57 | 6:30.66 | 123432 | 152747
6 | 33:56.48 | 7:06.55 | 152748 | 184752

Характеристики диапазона извлечения и сообщения об ошибках

Выбранный диапазон

Имя файла D:\My Music\ext\Архивы\Donald Byrd - Royal Flush\Donald Byrd - Royal Flush.wav

Пиковый уровень 97.9 %
Качество диапазона 99.9 %
CRC копии E12E9CAA
Копирование... OK

Ошибок не произошло

AccurateRip: сводка

Трек 1 точное извлечение (доверие 2) [08E110D0]
Трек 2 точное извлечение (доверие 2) [A56E5E38]
Трек 3 точное извлечение (доверие 2) [348C18B5]
Трек 4 точное извлечение (доверие 2) [5480C7F4]
Трек 5 точное извлечение (доверие 2) [35363A7F]
Трек 6 точное извлечение (доверие 2) [B58BD4CF]

Все треки извлечены точно

Конец отчёта
Доп. информация:
Originally recorded on September 21, 1961 at the Van Gelder Studio, Englewood Cliffs, New Jersey
Remastered in 2006 by Rudy Van Gelder

Трекер:  [ 28-Янв-2012 10:29 ]

  

Скачать .torrent

Размер .torrent файла 12 KB


Размер: 291 MB
Хэш (hash) релиза: 9068509a1d9ee8c29bb175130c7fc3b10ec18288

Еще никто не оставлял запись к записи скачать торрент Donald Byrd - Royal Flush {RVG Edition} - 1961, FLAC . Будь первым!

!Обратная связь