Скачать через торрент музыку Donald Byrd - Free Form бесплатно без регистрации torrent

Если у вас наблюдаются проблемы со скриншотами, переходом по ссылками, скачиванием торрентов - проблемы в блокировщике рекламы AdBlock. #хорошегоДня!


Статистика раздачи
Размер:  329 MB   |    Зарегистрирован:  5 лет 8 месяцев   |    .torrent скачан:  39 раз   |   
Раздают:  1  
   
Загрузка...
 
Автор Сообщение

Umakiro

avatar Umakiro


Donald Byrd - Free Form
Жанр: Hard Bop / Soul-Jazz
Год выпуска диска: 2004
Производитель диска: Blue Note: RVG Edition (7243 5 95961 2 9)
Аудио кодек: FLAC
Тип рипа: tracks+.cue
Битрейт аудио: lossless
Продолжительность: 0:44:36
Треклист:
01. Pentacostal Feeling (6:44)
02. Night Flower (6:48)
03. Nai Nai (6:38)
04. French Spice (8:02)
05. Free Form (11:12)
06. Three Wishes (Bonus Track) (5:12)

Donald Byrd - trumpet
Wayne Shorter - tenor sax
Herbie Hancock - piano
Butch Warren - bass
Billy Higgins - drums

Recorded on December 11, 1961 at the Van Gelder Studio, Englewood Cliffs, New Jersey

За рип спасибо ruskaval
 
Exact Audio Copy V0.99 prebeta 5 from 4. May 2009

EAC extraction logfile from 2. July 2010, 21:34

Donald Byrd / Free Form

Used drive : TSSTcorpCD/DVDW TS-H552L Adapter: 3 ID: 0

Read mode : SecureUtilize accurate stream : YesDefeat audio cache : YesMake use of C2 pointers : No

Read offset correction : 6Overread into Lead-In and Lead-Out : NoFill up missing offset samples with silence : YesDelete leading and trailing silent blocks : NoNull samples used in CRC calculations : YesUsed interface : Native Win32 interface for Win NT & 2000Gap handling : Appended to previous track

Used output format : User Defined EncoderSelected bitrate : 1024 kBit/sQuality : HighAdd ID3 tag : NoCommand line compressor : C:\Program Files\FLAC\flac.exeAdditional command line options : -6 -V -T "ARTIST=%a" -T "TITLE=%t" -T "ALBUM=%g" -T "DATE=%y" -T "TRACKNUMBER=%n" -T "GENRE=%m" -T "COMMENT=EAC FLAC -6" %s

TOC of the extracted CD

Track | Start | Length | Start sector | End sector --------------------------------------------------------- 1 | 0:00.00 | 6:43.72 | 0 | 30296 2 | 6:43.72 | 6:48.29 | 30297 | 60925 3 | 13:32.26 | 6:37.67 | 60926 | 90767 4 | 20:10.18 | 8:02.14 | 90768 | 126931 5 | 28:12.32 | 11:11.39 | 126932 | 177295 6 | 39:23.71 | 5:12.37 | 177296 | 200732

Track 1

Filename C:\Donald Byrd - Free Form (1961) {2004 Rudy Van Gelder Remaster}\01 - Pentacostal Feeling.wav

Pre-gap length 0:00:02.00

Peak level 98.0 % Track quality 100.0 % Test CRC FAC40A63 Copy CRC FAC40A63 Accurately ripped (confidence 4) [42508E62] Copy OK

Track 2

Filename C:\Donald Byrd - Free Form (1961) {2004 Rudy Van Gelder Remaster}\02 - Night Flower.wav

Pre-gap length 0:00:02.08

Peak level 95.7 % Track quality 100.0 % Test CRC 0CE422B8 Copy CRC 0CE422B8 Accurately ripped (confidence 4) [B87E9FF3] Copy OK

Track 3

Filename C:\Donald Byrd - Free Form (1961) {2004 Rudy Van Gelder Remaster}\03 - Nai Nai.wav

Pre-gap length 0:00:02.25

Peak level 97.9 % Track quality 100.0 % Test CRC DDA023BF Copy CRC DDA023BF Accurately ripped (confidence 4) [317D0613] Copy OK

Track 4

Filename C:\Donald Byrd - Free Form (1961) {2004 Rudy Van Gelder Remaster}\04 - French Spice.wav

Pre-gap length 0:00:02.43

Peak level 97.9 % Track quality 100.0 % Test CRC 39A9C3A2 Copy CRC 39A9C3A2 Accurately ripped (confidence 4) [AAD59849] Copy OK

Track 5

Filename C:\Donald Byrd - Free Form (1961) {2004 Rudy Van Gelder Remaster}\05 - Free Form.wav

Pre-gap length 0:00:01.72

Peak level 97.9 % Track quality 100.0 % Test CRC A5EE4CE3 Copy CRC A5EE4CE3 Accurately ripped (confidence 4) [A499666E] Copy OK

Track 6

Filename C:\Donald Byrd - Free Form (1961) {2004 Rudy Van Gelder Remaster}\06 - Three Wishes (Bonus Track).wav

Pre-gap length 0:00:02.16

Peak level 97.9 % Track quality 99.9 % Test CRC 06823FC8 Copy CRC 06823FC8 Accurately ripped (confidence 4) [1743B955] Copy OK

All tracks accurately ripped

No errors occurred

End of status report
 
REM GENRE JazzREM DATE 1961REM DISCID 420A7406REM COMMENT "ExactAudioCopy v0.99pb5"PERFORMER "Donald Byrd"TITLE "Free Form"FILE "01 - Pentacostal Feeling.wav" WAVE TRACK 01 AUDIO TITLE "Pentacostal Feeling" PERFORMER "Donald Byrd" INDEX 01 00:00:00 TRACK 02 AUDIO TITLE "Night Flower" PERFORMER "Donald Byrd" INDEX 00 06:41:64FILE "02 - Night Flower.wav" WAVE INDEX 01 00:00:00 TRACK 03 AUDIO TITLE "Nai Nai" PERFORMER "Donald Byrd" INDEX 00 06:46:04FILE "03 - Nai Nai.wav" WAVE INDEX 01 00:00:00 TRACK 04 AUDIO TITLE "French Spice" PERFORMER "Donald Byrd" INDEX 00 06:35:24FILE "04 - French Spice.wav" WAVE INDEX 01 00:00:00 TRACK 05 AUDIO TITLE "Free Form" PERFORMER "Donald Byrd" INDEX 00 08:00:17FILE "05 - Free Form.wav" WAVE INDEX 01 00:00:00 TRACK 06 AUDIO TITLE "Three Wishes (Bonus Track)" PERFORMER "Donald Byrd" INDEX 00 11:09:23FILE "06 - Three Wishes (Bonus Track).wav" WAVE INDEX 01 00:00:00


Трекер:  [ 28-Янв-2012 10:29 ]

  

Скачать .torrent

Размер .torrent файла 14 KB


Размер: 329 MB
Хэш (hash) релиза: a0493db0766999372871d21c62e3060282d66e0d

Еще никто не оставлял запись к записи скачать торрент Donald Byrd - Free Form . Будь первым!

!Обратная связь