Скачать через торрент музыку Donald Byrd - A New Perspective {RVG Edition} - 1963, FLAC бесплатно без регистрации torrent

Если у вас наблюдаются проблемы со скриншотами, переходом по ссылками, скачиванием торрентов - проблемы в блокировщике рекламы AdBlock. #хорошегоДня!


Статистика раздачи
Размер:  272 MB   |    Зарегистрирован:  5 лет 8 месяцев   |    .torrent скачан:  30 раз   |   
Раздают:  1  
   
Загрузка...
 
Автор Сообщение

Umakiro

avatar Umakiro


Donald Byrd - A New Perspective {RVG Edition}

Жанр: Hard Bop
Год выпуска диска: 1963
Производитель диска: USA
Аудио кодек: FLAC
Тип рипа: image+.cue
Битрейт аудио: lossless
Продолжительность: 40:55
Лейбл: Blue Note
Источник: NoNaMe

Трэклист:
1 Elijah
2 Beast of Burden
3 Cristo Redentor
4 The Black Disciple
5 Chant

Музыканты:
Donald Byrd, trumpet
Hank Mobley, tenor sax
Donald Best, vibes
Kenny Burrell, guitar
Herbie Hancock, piano
Butch Warren, bass
Lex Humphriex, drums
Choir under direction Coleridge Perkinson
Arrangements by Duke Pearson

Originally recorded on Januaru 12, 1963 at the Van Gelder Studio, Englewood Cliffs, New Jersey
Remastered in 1998 by Rudy Van Gelder
 
Exact Audio Copy V0.99 prebeta 3 from 28. July 2007

Отчёт EAC об извлечении, выполненном 28. декабря 2008, 16:58

Donald Byrd / A New Perspective

Дисковод: HL-DT-STDVD-RAM GSA-H55N Adapter: 0 ID: 0

Режим чтения : ДостоверностьИспользование точного потока : ДаОтключение кэша аудио : ДаИспользование указателей C2 : Нет

Коррекция смещения при чтении : 102Способность читать области Lead-in и Lead-out : НетЗаполнение пропущенных сэмплов тишиной : ДаУдаление блоков с тишиной в начале и конце : НетПри вычислениях CRC использовались нулевые сэмплы : НетИнтерфейс : Установленный внешний ASPI-интерфейс

Выходной формат : Пользовательский кодировщикВыбранный битрейт : 768 kBit/sКачество : ВысокийДобавление ID3-тэга : НетУтилита сжатия : C:\Program Files\Exact Audio Copy\FLAC\FLAC.EXEДополнительные параметры : -6 -V -T "ARTIST=%a" -T "TITLE=%t" -T "ALBUM=%g" -T "DATE=%y" -T "TRACKNUMBER=%n" -T "GENRE=%m" -T "COMMENT=%e" %s -o %d

TOC извлечённого CD

Трек | Старт | Длительность | Начальный сектор | Конечный сектор --------------------------------------------------------------------- 1 | 0:00.00 | 9:21.15 | 0 | 42089 2 | 9:21.15 | 10:07.61 | 42090 | 87675 3 | 19:29.01 | 5:43.21 | 87676 | 113421 4 | 25:12.22 | 8:12.09 | 113422 | 150330 5 | 33:24.31 | 7:31.42 | 150331 | 184197

Характеристики диапазона извлечения и сообщения об ошибках

Выбранный диапазон

Имя файла C:\Users\Миша\Documents\Donald Byrd - A New Perspective\Donald Byrd - A New Perspective.wav

Пиковый уровень 97.9 % Качество диапазона 99.9 % CRC копии 916B8510 Копирование... OK

Ошибок не произошло

AccurateRip: сводка

Трек 1 точность не определена (достоверность 9) [7B1700F8], AccurateRip вернул [6CE054DC]Трек 2 точность не определена (достоверность 9) [F0C73FC4], AccurateRip вернул [5E241831]Трек 3 точность не определена (достоверность 9) [BD2C3D6B], AccurateRip вернул [EEBD7B60]Трек 4 точность не определена (достоверность 9) [A831EB1A], AccurateRip вернул [56C4F19B]Трек 5 точность не определена (достоверность 9) [F9D51695], AccurateRip вернул [87D0DD9D]

Ни один трек не прошёл проверки на точностьВ вашей базе может быть иной вариант штамповки диска

Конец отчёта
 
AUDIOCHECKER v1.2 - by Dester - opdester@freemail.hu~~~~~~~~~~~~~~~~~

1 -===- E:\Up-Down\Donald Byrd - A New Perspective\Donald Byrd - A New Perspective.flac Extracted successfully Conclusion: This track looks like CDDA with probability 100%


Трекер:  [ 28-Янв-2012 10:28 ]

  

Скачать .torrent

Размер .torrent файла 11 KB


Размер: 272 MB
Хэш (hash) релиза: 2b7d5212fb3b7ebe61492ce2a541bb3a19e92ec0

Еще никто не оставлял запись к записи скачать торрент Donald Byrd - A New Perspective {RVG Edition} - 1963, FLAC . Будь первым!

!Обратная связь