Скачать через торрент музыку Donald Byrd - Off The Races {RVG Edition} - 1958, APE бесплатно без регистрации torrent

Если у вас наблюдаются проблемы со скриншотами, переходом по ссылками, скачиванием торрентов - проблемы в блокировщике рекламы AdBlock. #хорошегоДня!


Статистика раздачи
Размер:  260 MB   |    Зарегистрирован:  5 лет 8 месяцев   |    .torrent скачан:  29 раз   |   
Раздают:  1  
   
Загрузка...
 
Автор Сообщение

Umakiro

avatar Umakiro


Donald Byrd - Off The Races {RVG Edition}

Жанр: Hard Bop
Год выпуска диска: 1958
Производитель диска: UK
Аудио кодек: APE
Тип рипа: image+.cue
Битрейт аудио: lossless
Продолжительность: 37:55
Лейбл: Blue Note
Источник: собственный рип, full scan 300dpi

Трэклист:
1 Lover Come Back To Me
2 When Your Lover Has Gone
3 Sudwest Funk
4 Paul's Pal
5 Off To The Races
6 Down Tempo

Музыканты:
Donald Byrd, trumpet
Jackie McLean, alto sax
Pepper Adams, baritone sax
Wynton Kelly, piano
Sam Jones, bass
Art Taylor, drums

Originally recorded on December 21, 1958 at the Van Gelder Studio, Hackensack, New Jersey
Remastered in 2006 by Rudy Van Gelder
 
Exact Audio Copy V0.99 prebeta 4 from 23. January 2008

Отчёт EAC об извлечении, выполненном 20. августа 2009, 15:17

Donald Byrd / Off to the Races

Дисковод: Optiarc DVD RW AD-7200A Adapter: 3 ID: 1

Режим чтения : ДостоверностьИспользование точного потока : ДаОтключение кэша аудио : ДаИспользование указателей C2 : Нет

Коррекция смещения при чтении : 48Способность читать области Lead-in и Lead-out : НетЗаполнение пропущенных сэмплов тишиной : ДаУдаление блоков с тишиной в начале и конце : НетПри вычислениях CRC использовались нулевые сэмплы : ДаИнтерфейс : Установленный внешний ASPI-интерфейс

Выходной формат : Внутренние WAV-операцииФормат сэмплов : 44.100 Гц; 16 бит; стерео

TOC извлечённого CD

Трек | Старт | Длительность | Начальный сектор | Конечный сектор --------------------------------------------------------------------- 1 | 0:00.00 | 6:52.69 | 0 | 30968 2 | 6:52.69 | 5:04.27 | 30969 | 53795 3 | 11:57.21 | 6:53.62 | 53796 | 84832 4 | 18:51.08 | 7:08.66 | 84833 | 116998 5 | 25:59.74 | 6:36.66 | 116999 | 146764 6 | 32:36.65 | 5:19.02 | 146765 | 170691

Характеристики диапазона извлечения и сообщения об ошибках

Выбранный диапазон

Имя файла E:\Up-Down\Donald Byrd - Off to the Races\Donald Byrd - Off to the Races.wav

Пиковый уровень 97.9 % Качество диапазона 100.0 % CRC копии 4F1EA7BE Копирование... OK

Ошибок не произошло

AccurateRip: сводка

Трек 1 точное извлечение (доверие 6) [761EDFCE]Трек 2 точное извлечение (доверие 6) [1322FD7C]Трек 3 точное извлечение (доверие 6) [015B5D54]Трек 4 точное извлечение (доверие 6) [51C5E4FA]Трек 5 точное извлечение (доверие 6) [D29984BC]Трек 6 точное извлечение (доверие 6) [94B13042]

Все треки извлечены точно

Конец отчёта
 
AUDIOCHECKER v1.2 - by Dester - opdester@freemail.hu~~~~~~~~~~~~~~~~~

1 -===- E:\Up-Down\Donald Byrd - Off to the Races\Donald Byrd - Off to the Races.ape Extracted successfully Conclusion: This track looks like CDDA with probability 100%


Трекер:  [ 28-Янв-2012 08:17 ]

  

Скачать .torrent

Размер .torrent файла 11 KB


Размер: 260 MB
Хэш (hash) релиза: 29a3ad1c9d249654728ebb551f2d4e63934c9ba7

Еще никто не оставлял запись к записи скачать торрент Donald Byrd - Off The Races {RVG Edition} - 1958, APE . Будь первым!

!Обратная связь