Скачать через торрент музыку Dexter Gordon - Dexter Calling - 1961, FLAC бесплатно без регистрации torrent

Если у вас наблюдаются проблемы со скриншотами, переходом по ссылками, скачиванием торрентов - проблемы в блокировщике рекламы AdBlock. #хорошегоДня!


Статистика раздачи
Размер:  299 MB   |    Зарегистрирован:  5 лет 8 месяцев   |    .torrent скачан:  25 раз   |   
Раздают:  1  
   
Загрузка...
 
Автор Сообщение

Umakiro

avatar Umakiro


Dexter Gordon - Dexter Calling

Жанр: Jazz, Hard Bop
Год выпуска диска: 1961
Производитель диска: Blue Note
Аудио кодек: FLAC
Тип рипа: image+.cue
Битрейт аудио: lossless
Продолжительность: 43:12

Трэклист:
01. Soul sister
02. Modal mood
03. I want more
04. The end of a love affair
05. Clear the dex
06. Ernie's tune
07. Smile
08. Landslide

The Band:
Dexter Gordon: tenor sax
Kenny Drew: piano
Paul Chambers: bass
Philly Joe Jones: drums
Exact Audio Copy V0.99 prebeta 4 from 23. January 2008

Отчёт EAC об извлечении, выполненном 3. февраля 2009, 20:51

Dexter Gordon / Dexter Calling (RVG-edition)

Дисковод: PIONEER DVD-RW DVR-111D Adapter: 0 ID: 0

Режим чтения : Достоверность
Использование точного потока : Да
Отключение кэша аудио : Да
Использование указателей C2 : Нет

Коррекция смещения при чтении : 48
Способность читать области Lead-in и Lead-out : Нет
Заполнение пропущенных сэмплов тишиной : Да
Удаление блоков с тишиной в начале и конце : Нет
При вычислениях CRC использовались нулевые сэмплы : Да
Интерфейс : Встроенный Win32-интерфейс для Win NT/2000

Выходной формат : Пользовательский кодировщик
Выбранный битрейт : 768 kBit/s
Качество : Высокий
Добавление ID3-тэга : Нет
Утилита сжатия : C:\Program Files\Exact Audio Copy\FLAC\FLAC.EXE
Дополнительные параметры : -6 -V -T "ARTIST=%a" -T "TITLE=%t" -T "ALBUM=%g" -T "DATE=%y" -T "TRACKNUMBER=%n" -T "GENRE=%m" -T "COMMENT=%e" %s -o %d

TOC извлечённого CD

Трек | Старт | Длительность | Начальный сектор | Конечный сектор
---------------------------------------------------------------------
1 | 0:00.00 | 7:45.05 | 0 | 34879
2 | 7:45.05 | 5:23.55 | 34880 | 59159
3 | 13:08.60 | 5:20.26 | 59160 | 83185
4 | 18:29.11 | 6:53.47 | 83186 | 114207
5 | 25:22.58 | 4:54.31 | 114208 | 136288
6 | 30:17.14 | 4:16.43 | 136289 | 155531
7 | 34:33.57 | 3:23.23 | 155532 | 170779
8 | 37:57.05 | 5:15.28 | 170780 | 194432
9 | 45:44.33 | 28:13.42 | 205833 | 332849

Характеристики диапазона извлечения и сообщения об ошибках

Выбранный диапазон

Имя файла F:\U-TORRENT\Dexter Gordon - Dexter Calling (RVG-edition)\Dexter Gordon - Dexter Calling (RVG-edition).wav

Пиковый уровень 97.9 %
Качество диапазона 99.9 %
CRC копии 85269906
Копирование... OK

Ошибок не произошло

AccurateRip: сводка

Трек 1 нет в базе данных
Трек 2 точное извлечение (доверие 2) [D288B42D]
Трек 3 точное извлечение (доверие 2) [9D9E9E47]
Трек 4 точное извлечение (доверие 2) [F25CA257]
Трек 5 точное извлечение (доверие 2) [887CF139]
Трек 6 точное извлечение (доверие 2) [EBB52C89]
Трек 7 точное извлечение (доверие 2) [5C42410C]
Трек 8 точное извлечение (доверие 2) [12D3AA86]

7 трек(и) скопированы точно
1 трек(и) не содержатся в базе AccurateRip

Некоторые треки не прошли проверку на точность

Конец отчёта


Трекер:  [ 28-Янв-2012 08:15 ]

  

Скачать .torrent

Размер .torrent файла 12 KB


Размер: 299 MB
Хэш (hash) релиза: 615b41e5c9eea2f7ca2ff26c4ab85ef5706f30e2

Еще никто не оставлял запись к записи скачать торрент Dexter Gordon - Dexter Calling - 1961, FLAC . Будь первым!

!Обратная связь