Скачать через торрент музыку Dexter Gordon - Clubhouse {RVG Edition} - 1965, FLAC бесплатно без регистрации torrent

Если у вас наблюдаются проблемы со скриншотами, переходом по ссылками, скачиванием торрентов - проблемы в блокировщике рекламы AdBlock. #хорошегоДня!


Статистика раздачи
Размер:  263 MB   |    Зарегистрирован:  5 лет 8 месяцев   |    .torrent скачан:  37 раз   |   
Раздают:  1  
   
Загрузка...
 
Автор Сообщение

Umakiro

avatar Umakiro


Dexter Gordon - Clubhouse {RVG Edition}

Жанр: Jazz, Hard Bop
Год выпуска диска: 1965
Производитель диска: USA
Аудио кодек: FLAC
Тип рипа: image+.cue
Битрейт аудио: lossless
Продолжительность: 39:16
Лейбл: Blue Note

Трэклист:
1 Hanky Panky
2 I'm a Fool to Want You
3 Devilette
4 Clubhouse
5 Lady Iris
6 Jodi

Музыканты:
Freddie Hubbard, trumpet
Dexter Gordon, tenor sax
Barry Harris, piano
Ben Tucker (#3), Bob Cranshaw (all others), bass
Billy Higgins, drums
Exact Audio Copy V0.99 prebeta 4 from 23. January 2008

Отчёт EAC об извлечении, выполненном 2. февраля 2009, 21:51

Dexter Gordon / Clubhouse

Дисковод: _NEC NR-7900A Adapter: 3 ID: 1

Режим чтения : Достоверность
Использование точного потока : Да
Отключение кэша аудио : Да
Использование указателей C2 : Нет

Коррекция смещения при чтении : 685
Способность читать области Lead-in и Lead-out : Нет
Заполнение пропущенных сэмплов тишиной : Да
Удаление блоков с тишиной в начале и конце : Нет
При вычислениях CRC использовались нулевые сэмплы : Да
Интерфейс : Установленный внешний ASPI-интерфейс

Выходной формат : Пользовательский кодировщик
Выбранный битрейт : 768 kBit/s
Качество : Высокий
Добавление ID3-тэга : Нет
Утилита сжатия : C:\Program Files\Exact Audio Copy\FLAC\FLAC.EXE
Дополнительные параметры : -6 -V -T "ARTIST=%a" -T "TITLE=%t" -T "ALBUM=%g" -T "DATE=%y" -T "TRACKNUMBER=%n" -T "GENRE=%m" -T "COMMENT=%e" %s -o %d

TOC извлечённого CD

Трек | Старт | Длительность | Начальный сектор | Конечный сектор
---------------------------------------------------------------------
1 | 0:00.00 | 6:29.13 | 0 | 29187
2 | 6:29.13 | 6:44.05 | 29188 | 59492
3 | 13:13.18 | 7:05.30 | 59493 | 91397
4 | 20:18.48 | 7:33.53 | 91398 | 125425
5 | 27:52.26 | 5:40.40 | 125426 | 150965
6 | 33:32.66 | 5:43.48 | 150966 | 176738

Характеристики диапазона извлечения и сообщения об ошибках

Выбранный диапазон

Имя файла D:\My Music\ext\Архивы\Dexter Gordon - Clubhouse\Dexter Gordon - Clubhouse.wav

Пиковый уровень 98.0 %
Качество диапазона 99.9 %
CRC копии 30495D28
Копирование... OK

Ошибок не произошло

Конец отчёта


Трекер:  [ 28-Янв-2012 08:14 ]

  

Скачать .torrent

Размер .torrent файла 11 KB


Размер: 263 MB
Хэш (hash) релиза: 033d4b6bcf4fb6353d630af5cb716deee13c196e

Еще никто не оставлял запись к записи скачать торрент Dexter Gordon - Clubhouse {RVG Edition} - 1965, FLAC . Будь первым!

!Обратная связь