Скачать через торрент музыку Dexter Gordon - Doin Allright бесплатно без регистрации torrent

Если у вас наблюдаются проблемы со скриншотами, переходом по ссылками, скачиванием торрентов - проблемы в блокировщике рекламы AdBlock. #хорошегоДня!


Статистика раздачи
Размер:  352 MB   |    Зарегистрирован:  5 лет 8 месяцев   |    .torrent скачан:  27 раз   |   
Раздают:  1  
   
Загрузка...
 
Автор Сообщение

Umakiro

avatar Umakiro


Dexter Gordon - Doin' Allright
Жанр: Hard Bop
Год выпуска диска: 2004
Производитель диска: Blue Note: RVG Edition (7243 5 96504 2 5)
Аудио кодек: FLAC
Тип рипа: tracks+.cue
Битрейт аудио: lossless
Продолжительность: 0:53:41
Трэклист:
01. I Was Doing All Right (9:19)
02. You've Changed (7:27)
03. For Regulars Only (5:46)
04. Society Red (12:21)
05. It's You Or No One (6:14)
06. I Want More (6:12)
07. For Regulars Only (Alternate Take) (6:21)

Freddie Hubbard - trumpet
Dexter Gordon - tenor sax
Horace Parlan - piano
George Tucker - bass
Al Harewood - drums

Recorded on May 6, 1961 at the Van Gelder Studio, Englewood Cliffs, New Jersey

За рип спасибо ruskaval
 
Exact Audio Copy V0.99 prebeta 5 from 4. May 2009

EAC extraction logfile from 29. June 2010, 22:57

Dexter Gordon / Doin' Allright

Used drive : TSSTcorpCD/DVDW TS-H552L Adapter: 3 ID: 0

Read mode : SecureUtilize accurate stream : YesDefeat audio cache : YesMake use of C2 pointers : No

Read offset correction : 6Overread into Lead-In and Lead-Out : NoFill up missing offset samples with silence : YesDelete leading and trailing silent blocks : NoNull samples used in CRC calculations : YesUsed interface : Native Win32 interface for Win NT & 2000Gap handling : Appended to previous track

Used output format : User Defined EncoderSelected bitrate : 1024 kBit/sQuality : HighAdd ID3 tag : NoCommand line compressor : C:\Program Files\FLAC\flac.exeAdditional command line options : -6 -V -T "ARTIST=%a" -T "TITLE=%t" -T "ALBUM=%g" -T "DATE=%y" -T "TRACKNUMBER=%n" -T "GENRE=%m" -T "COMMENT=EAC FLAC -6" %s

TOC of the extracted CD

Track | Start | Length | Start sector | End sector --------------------------------------------------------- 1 | 0:00.00 | 9:19.12 | 0 | 41936 2 | 9:19.12 | 7:27.33 | 41937 | 75494 3 | 16:46.45 | 5:45.39 | 75495 | 101408 4 | 22:32.09 | 12:21.08 | 101409 | 156991 5 | 34:53.17 | 6:14.35 | 156992 | 185076 6 | 41:07.52 | 6:11.43 | 185077 | 212944 7 | 47:19.20 | 6:21.33 | 212945 | 241552

Track 1

Filename C:\Dexter Gordon - Doin' Allright (1961) {2004 Rudy Van Gelder Remaster}\01 - I Was Doing All Right.wav

Pre-gap length 0:00:02.00

Peak level 97.9 % Track quality 99.9 % Test CRC F0ED50B2 Copy CRC F0ED50B2 Accurately ripped (confidence 7) [B5BF72BC] Copy OK

Track 2

Filename C:\Dexter Gordon - Doin' Allright (1961) {2004 Rudy Van Gelder Remaster}\02 - You've Changed.wav

Pre-gap length 0:00:02.22

Peak level 97.9 % Track quality 100.0 % Test CRC 40212B58 Copy CRC 40212B58 Accurately ripped (confidence 8) [A97A1661] Copy OK

Track 3

Filename C:\Dexter Gordon - Doin' Allright (1961) {2004 Rudy Van Gelder Remaster}\03 - For Regulars Only.wav

Pre-gap length 0:00:03.41

Peak level 97.9 % Track quality 100.0 % Test CRC F1B59462 Copy CRC F1B59462 Accurately ripped (confidence 8) [333E0A21] Copy OK

Track 4

Filename C:\Dexter Gordon - Doin' Allright (1961) {2004 Rudy Van Gelder Remaster}\04 - Society Red.wav

Pre-gap length 0:00:02.64

Peak level 97.9 % Track quality 100.0 % Test CRC 0774C7EF Copy CRC 0774C7EF Accurately ripped (confidence 8) [6AA7C9E1] Copy OK

Track 5

Filename C:\Dexter Gordon - Doin' Allright (1961) {2004 Rudy Van Gelder Remaster}\05 - It's You Or No One.wav

Pre-gap length 0:00:03.04

Peak level 97.9 % Track quality 100.0 % Test CRC AFD9A00D Copy CRC AFD9A00D Accurately ripped (confidence 7) [44AF2169] Copy OK

Track 6

Filename C:\Dexter Gordon - Doin' Allright (1961) {2004 Rudy Van Gelder Remaster}\06 - I Want More.wav

Pre-gap length 0:00:02.31

Peak level 97.2 % Track quality 99.9 % Test CRC F2F6D308 Copy CRC F2F6D308 Accurately ripped (confidence 8) [F475910F] Copy OK

Track 7

Filename C:\Dexter Gordon - Doin' Allright (1961) {2004 Rudy Van Gelder Remaster}\07 - For Regulars Only (Alternate Take).wav

Pre-gap length 0:00:03.16

Peak level 91.7 % Track quality 100.0 % Test CRC 86B16993 Copy CRC 86B16993 Accurately ripped (confidence 7) [F81F5379] Copy OK

All tracks accurately ripped

No errors occurred

End of status report
 
REM GENRE JazzREM DATE 1961REM DISCID 580C9407REM COMMENT "ExactAudioCopy v0.99pb5"PERFORMER "Dexter Gordon"TITLE "Doin' Allright"FILE "01 - I Was Doing All Right.wav" WAVE TRACK 01 AUDIO TITLE "I Was Doing All Right" PERFORMER "Dexter Gordon" INDEX 01 00:00:00 TRACK 02 AUDIO TITLE "You've Changed" PERFORMER "Dexter Gordon" INDEX 00 09:16:65FILE "02 - You've Changed.wav" WAVE INDEX 01 00:00:00 TRACK 03 AUDIO TITLE "For Regulars Only" PERFORMER "Dexter Gordon" INDEX 00 07:23:67FILE "03 - For Regulars Only.wav" WAVE INDEX 01 00:00:00 TRACK 04 AUDIO TITLE "Society Red" PERFORMER "Dexter Gordon" INDEX 00 05:42:50FILE "04 - Society Red.wav" WAVE INDEX 01 00:00:00 TRACK 05 AUDIO TITLE "It's You Or No One" PERFORMER "Dexter Gordon" INDEX 00 12:18:04FILE "05 - It's You Or No One.wav" WAVE INDEX 01 00:00:00 TRACK 06 AUDIO TITLE "I Want More" PERFORMER "Dexter Gordon" INDEX 00 06:12:04FILE "06 - I Want More.wav" WAVE INDEX 01 00:00:00 TRACK 07 AUDIO TITLE "For Regulars Only (Alternate Take)" PERFORMER "Dexter Gordon" INDEX 00 06:08:27FILE "07 - For Regulars Only (Alternate Take).wav" WAVE INDEX 01 00:00:00


Трекер:  [ 28-Янв-2012 08:13 ]

  

Скачать .torrent

Размер .torrent файла 15 KB


Размер: 352 MB
Хэш (hash) релиза: e83744c942cc0e391b74f15ad6c89bd08823b346

Еще никто не оставлял запись к записи скачать торрент Dexter Gordon - Doin Allright . Будь первым!

!Обратная связь