Скачать через торрент музыку Dexter Gordon - One Flight Up - 1964, FLAC бесплатно без регистрации torrent

Если у вас наблюдаются проблемы со скриншотами, переходом по ссылками, скачиванием торрентов - проблемы в блокировщике рекламы AdBlock. #хорошегоДня!


Статистика раздачи
Размер:  296 MB   |    Зарегистрирован:  5 лет 8 месяцев   |    .torrent скачан:  26 раз   |   
Раздают:  1  
   
Загрузка...
 
Автор Сообщение

Umakiro

avatar Umakiro


Dexter Gordon - One Flight Up

Жанр: jazz
Год выпуска диска: 1964
Производитель диска: USA
Аудио кодек: FLAC
Тип рипа: image+.cue
Битрейт аудио: lossless
Продолжительность: 48:06

Трэклист:
01. Tanya
02. Coppin' The Haven
03. Darn That Dream
04. Kong Neptune*
*Not part of original LP

The Band:
Donald Byrd: trumpet
Dexter Gordon: tenor sax
Kenny Drew: piano
Neils-Henning Orsted Pedersen: bass
Art Taylor: drums

Recorded on June 2, 1964 by Jaques Lubin of CBS Studios, Paris, France

Remastered in 2003 by Rudy Van Gelder
Exact Audio Copy V0.99 prebeta 4 from 23. January 2008

Отчёт EAC об извлечении, выполненном 7. января 2009, 6:25

Dexter Gordon / One Flight Up

Дисковод: Optiarc DVD RW AD-7191S Adapter: 2 ID: 0

Режим чтения : Достоверность
Использование точного потока : Да
Отключение кэша аудио : Да
Использование указателей C2 : Нет

Коррекция смещения при чтении : 6
Способность читать области Lead-in и Lead-out : Нет
Заполнение пропущенных сэмплов тишиной : Да
Удаление блоков с тишиной в начале и конце : Нет
При вычислениях CRC использовались нулевые сэмплы : Да
Интерфейс : Встроенный Win32-интерфейс для Win NT/2000

Выходной формат : Пользовательский кодировщик
Выбранный битрейт : 768 kBit/s
Качество : Высокий
Добавление ID3-тэга : Нет
Утилита сжатия : C:\Program Files\Exact Audio Copy\FLAC\FLAC.EXE
Дополнительные параметры : -6 -V -T "ARTIST=%a" -T "TITLE=%t" -T "ALBUM=%g" -T "DATE=%y" -T "TRACKNUMBER=%n" -T "GENRE=%m" -T "COMMENT=%e" %s -o %d

TOC извлечённого CD

Трек | Старт | Длительность | Начальный сектор | Конечный сектор
---------------------------------------------------------------------
1 | 0:00.00 | 18:18.38 | 0 | 82387
2 | 18:18.38 | 11:16.73 | 82388 | 133160
3 | 29:35.36 | 7:29.74 | 133161 | 166909
4 | 37:05.35 | 11:00.53 | 166910 | 216462

Характеристики диапазона извлечения и сообщения об ошибках

Выбранный диапазон

Имя файла F:\U-TORRENT\Dexter Gordon - One Flight Up\Dexter Gordon - One Flight Up.wav

Пиковый уровень 97.9 %
Качество диапазона 100.0 %
CRC копии 4F8CF2B7
Копирование... OK

Ошибок не произошло

AccurateRip: сводка

Трек 1 точное извлечение (доверие 12) [629E01E7]
Трек 2 точное извлечение (доверие 12) [3E646AF1]
Трек 3 точное извлечение (доверие 12) [98BB0A6D]
Трек 4 точное извлечение (доверие 12) [28D29583]

Все треки извлечены точно

Конец отчёта


Трекер:  [ 28-Янв-2012 08:13 ]

  

Скачать .torrent

Размер .torrent файла 12 KB


Размер: 296 MB
Хэш (hash) релиза: d082a01b30fa5f2c16f6ccf49634157835e24041

Еще никто не оставлял запись к записи скачать торрент Dexter Gordon - One Flight Up - 1964, FLAC . Будь первым!

!Обратная связь