Скачать через торрент музыку Curtis Fuller - The Opener - 1957 бесплатно без регистрации torrent

Если у вас наблюдаются проблемы со скриншотами, переходом по ссылками, скачиванием торрентов - проблемы в блокировщике рекламы AdBlock. #хорошегоДня!


Статистика раздачи
Размер:  223 MB   |    Зарегистрирован:  5 лет 8 месяцев   |    .torrent скачан:  28 раз   |   
Раздают:  1  
   
Загрузка...
 
Автор Сообщение

Umakiro

avatar Umakiro


Curtis Fuller - The Opener

Жанр: Jazz
Год записи диска: 1957
Год выпуска диска: 2008
Label: Blue Note
Производитель диска: EU
Аудио кодек: FLAC
Тип рипа: image+.cue
Битрейт аудио: lossless
Продолжительность: 37:02.307
Источник: Нонейм, автор mishka1981
Трэклист:
1. A Lovely Way To Spend An Evening
2. Hugore
3. Oscalypso
4. Here's To My Lady
5. Lizzy's Bounce
6. Soon
Музыканты:
Curtis Fuller (tb)
Hank Mobley (ts)
Bobby Timmons (p)
Paul Chambers (b)
Art Taylor (d)
Exact Audio Copy V0.99 prebeta 3 from 28. July 2007

Отчёт EAC об извлечении, выполненном 14. сентября 2008, 17:47

Curtis Fuller / The Opener

Дисковод: _NEC DVD_RW ND-3540A Adapter: 2 ID: 0

Режим чтения : Достоверность
Использование точного потока : Да
Отключение кэша аудио : Да
Использование указателей C2 : Нет

Коррекция смещения при чтении : 48
Способность читать области Lead-in и Lead-out : Нет
Заполнение пропущенных сэмплов тишиной : Да
Удаление блоков с тишиной в начале и конце : Нет
При вычислениях CRC использовались нулевые сэмплы : Да
Интерфейс : Установленный внешний ASPI-интерфейс

Выходной формат : Пользовательский кодировщик
Выбранный битрейт : 768 kBit/s
Качество : Высокий
Добавление ID3-тэга : Да
Утилита сжатия : C:\Program Files\Exact Audio Copy\FLAC\FLAC.EXE
Дополнительные параметры : -6 -V -T "ARTIST=%a" -T "TITLE=%t" -T "ALBUM=%g" -T "DATE=%y" -T "TRACKNUMBER=%n" -T "GENRE=%m" -T "COMMENT=%e" %s -o %d

TOC извлечённого CD

Трек | Старт | Длительность | Начальный сектор | Конечный сектор
---------------------------------------------------------------------
1 | 0:00.00 | 6:53.25 | 0 | 30999
2 | 6:53.25 | 6:44.66 | 31000 | 61365
3 | 13:38.16 | 5:40.58 | 61366 | 86923
4 | 19:18.74 | 6:43.29 | 86924 | 117177
5 | 26:02.28 | 5:24.35 | 117178 | 141512
6 | 31:26.63 | 5:35.35 | 141513 | 166672

Характеристики диапазона извлечения и сообщения об ошибках

Выбранный диапазон

Имя файла C:\Documents and Settings\Миша\Мои документы\Curtis Fuller - The Opener\Curtis Fuller - The Opener.wav

Пиковый уровень 97.9 %
Качество диапазона 100.0 %
CRC копии 059488D7
Копирование... OK

Ошибок не произошло

AccurateRip: сводка

Трек 1 нет в базе данных
Трек 2 нет в базе данных
Трек 3 нет в базе данных
Трек 4 нет в базе данных
Трек 5 нет в базе данных
Трек 6 нет в базе данных

Ни одного трека нет в базе AccurateRip

Конец отчёта


Трекер:  [ 28-Янв-2012 08:12 ]

  

Скачать .torrent

Размер .torrent файла 36 KB


Размер: 223 MB
Хэш (hash) релиза: 52ec3e67a2fc4793fce0a1b30705bfe2bc6f3dbf

Еще никто не оставлял запись к записи скачать торрент Curtis Fuller - The Opener - 1957 . Будь первым!

!Обратная связь