Скачать через торрент музыку Clifford Jordan & John Gilmore - Blowing In From Chicago бесплатно без регистрации torrent

Если у вас наблюдаются проблемы со скриншотами, переходом по ссылками, скачиванием торрентов - проблемы в блокировщике рекламы AdBlock. #хорошегоДня!


Статистика раздачи
Размер:  197 MB   |    Зарегистрирован:  5 лет 8 месяцев   |    .torrent скачан:  41 раз   |   
Раздают:  1  
   
Загрузка...
 
Автор Сообщение

Umakiro

avatar Umakiro


Clifford Jordan & John Gilmore - Blowing In From Chicago (RVG Edition)

Страна: US
Жанр: Hard-bop
Год выпуска: 1957
Формат: FLAC (tracks)
Битрейт аудио: lossless
Продолжительность: 46:29

Трэклист:
01. Status Quo (5:37)
02. Bo-Till (5:57)
03. Blue Lights (6:38)
04. Billie's Bounce (9:35)
05. Evil Eye (5:15)
06. Everywhere (5:45)
07. Let it Stand (7:42)

Доп. информация: Clifford Jordan, John Gilmore ts
Horace Silver p
Curly Russell b
Art Blakey dr
EAC extraction logfile from 2. September 2005, 8:39 for CD
Cliff Jordan & John Gilmore / Blowing in from Chicago [RVG Edition 2003]

Used drive : PLEXTOR CD-R PX-W4824A Adapter: 1 ID: 0
Read mode : Secure with NO C2, accurate stream, disable cache
Read offset correction : 98
Overread into Lead-In and Lead-Out : Yes

Used output format : C:\Programme\FLAC\flac.exe (User Defined Encoder)
320 kBit/s
Additional command line options : -8 -V -T "artist=%a" -T "title=%t" -T "album=%g" -T "date=%y" -T "tracknumber=%n" -T "genre=%m" -T "comment=Blue Note Records - The Rudy Van Gelder Edition - 7243 5 42306 2 2" %s

Other options :
Fill up missing offset samples with silence : Yes
Delete leading and trailing silent blocks : No
Installed external ASPI interface

Track 1
Filename C:\Upload_Geplant\Clifford Jordan-John Gilmore - Blowing In From Chicago (1957) [FLAC] {BN - RVG Edition 2003}\01 - Status Quo.wav

Pre-gap length 0:00:02.00

Peak level 96.2 %
Track quality 100.0 %
Test CRC A7D32BE5
Copy CRC A7D32BE5
Copy OK

Track 2
Filename C:\Upload_Geplant\Clifford Jordan-John Gilmore - Blowing In From Chicago (1957) [FLAC] {BN - RVG Edition 2003}\02 - Bo-Till.wav

Pre-gap length 0:00:02.32

Peak level 91.6 %
Track quality 100.0 %
Test CRC 3681AEBF
Copy CRC 3681AEBF
Copy OK

Track 3
Filename C:\Upload_Geplant\Clifford Jordan-John Gilmore - Blowing In From Chicago (1957) [FLAC] {BN - RVG Edition 2003}\03 - Blue Lights.wav

Pre-gap length 0:00:02.50

Peak level 90.4 %
Track quality 100.0 %
Test CRC 3075A54B
Copy CRC 3075A54B
Copy OK

Track 4
Filename C:\Upload_Geplant\Clifford Jordan-John Gilmore - Blowing In From Chicago (1957) [FLAC] {BN - RVG Edition 2003}\04 - Billie's Bounce.wav

Pre-gap length 0:00:02.73

Peak level 100.0 %
Track quality 100.0 %
Test CRC DE9F2A95
Copy CRC DE9F2A95
Copy OK

Track 5
Filename C:\Upload_Geplant\Clifford Jordan-John Gilmore - Blowing In From Chicago (1957) [FLAC] {BN - RVG Edition 2003}\05 - Evil Eye.wav

Pre-gap length 0:00:02.50

Peak level 98.5 %
Track quality 100.0 %
Test CRC F485CC72
Copy CRC F485CC72
Copy OK

Track 6
Filename C:\Upload_Geplant\Clifford Jordan-John Gilmore - Blowing In From Chicago (1957) [FLAC] {BN - RVG Edition 2003}\06 - Everywhere.wav

Pre-gap length 0:00:02.32

Peak level 99.4 %
Track quality 100.0 %
Test CRC 57130DBD
Copy CRC 57130DBD
Copy OK

Track 7
Filename C:\Upload_Geplant\Clifford Jordan-John Gilmore - Blowing In From Chicago (1957) [FLAC] {BN - RVG Edition 2003}\07 - Let it Stand.wav

Pre-gap length 0:00:02.88

Peak level 95.7 %
Track quality 100.0 %
Test CRC CF0A3454
Copy CRC CF0A3454
Copy OK

No errors occured

End of status report
Единственный альбом мистера Гилмора в качестве [со]лидера. Хард-боп с большущей буквы. Оба дяди жгут.
Если кто не знает ху из Джан Гилмор - то это второй человек в санрашной Аркестре, кроме того просто супер тенор. Даже Колтрейн в каком-то своем интервью говорил, о том что Гилмор очень повлиял на его игру.

Трекер:  [ 28-Янв-2012 08:12 ]

  

Скачать .torrent

Размер .torrent файла 17 KB


Размер: 197 MB
Хэш (hash) релиза: 49c8ffebb4e6f9d9acb94ae3631650c67d28bc32

Еще никто не оставлял запись к записи скачать торрент Clifford Jordan & John Gilmore - Blowing In From Chicago . Будь первым!

!Обратная связь