Скачать через торрент музыку Clifford Brown - Jazz Immortal {RVG Edition} - 1954, FLAC бесплатно без регистрации torrent

Если у вас наблюдаются проблемы со скриншотами, переходом по ссылками, скачиванием торрентов - проблемы в блокировщике рекламы AdBlock. #хорошегоДня!


Статистика раздачи
Размер:  112 MB   |    Зарегистрирован:  5 лет 8 месяцев   |    .torrent скачан:  25 раз   |   
Раздают:  1  
   
Загрузка...
 
Автор Сообщение

Umakiro

avatar Umakiro


Clifford Brown - Jazz Immortal {RVG Edition}

Жанр: Bop/Hard Bop
Год выпуска диска: 1954
Производитель диска: USA
Аудио кодек: FLAC
Тип рипа: tracks+.cue
Битрейт аудио: lossless
Продолжительность: 32:47
Лейбл: Blue Note
Источник: NoNaMe

Трэклист:
01. Daahoud
02. Finders Keepers
03. Joy Spring
04. Gone With the Wind
05. Bones for Jones
06. Blueberry Hill
07. Tiny Capers
08. Tiny Capers [Alternate Take]
09. Gone With the Wind [Alternate Take]

Музыканты:
Clifford Brown - trumpet
Stu Williamson - valve trombone, trumpet
Zoot Sims - tenor sax
Bob Gordon - baritone sax
Russ Freeman - piano
Joe Mondragon(1-3), Carson Smith(4-9) - bass
Shelly Manne - drums

Originally recorded on July 12 & August 12, 1954 at Capitol Studios, Los Angelos.
Remastered in 2001 by Rudy Van Gelder
 
Exact Audio Copy V0.99 prebeta 4 from 23. January 2008

EAC extraction logfile from 9. March 2009, 0:02

Clifford Brown / Jazz Immortal

Used drive : _NEC DVD_RW ND-3540A Adapter: 0 ID: 0

Read mode : SecureUtilize accurate stream : YesDefeat audio cache : YesMake use of C2 pointers : No

Read offset correction : 48Overread into Lead-In and Lead-Out : NoFill up missing offset samples with silence : YesDelete leading and trailing silent blocks : NoNull samples used in CRC calculations : YesUsed interface : Native Win32 interface for Win NT & 2000Gap handling : Appended to previous track

Used output format : User Defined EncoderSelected bitrate : 32 kBit/sQuality : HighAdd ID3 tag : NoCommand line compressor : C:\Program Files\FLAC\flac.exeAdditional command line options : -8 -V -T "ARTIST=%a" -T "TITLE=%t" -T "ALBUM=%g" -T "DATE=%y" -T "TRACKNUMBER=%n" -T "GENRE=%m" -T "COMMENT=EAC FLAC -8" %s

TOC of the extracted CD

Track | Start | Length | Start sector | End sector --------------------------------------------------------- 1 | 0:00.00 | 4:13.47 | 0 | 19021 2 | 4:13.47 | 3:52.29 | 19022 | 36450 3 | 8:06.01 | 3:16.30 | 36451 | 51180 4 | 11:22.31 | 3:40.20 | 51181 | 67700 5 | 15:02.51 | 4:15.38 | 67701 | 86863 6 | 19:18.14 | 3:16.09 | 86864 | 101572 7 | 22:34.23 | 4:16.15 | 101573 | 120787 8 | 26:50.38 | 2:59.02 | 120788 | 134214 9 | 29:49.40 | 2:58.08 | 134215 | 147572

Track 1

Filename V:\Pedro\Clifford Brown - Jazz Immortal (1954) [FLAC]\01 - Daahoud.wav

Pre-gap length 0:00:02.00

Peak level 97.9 % Track quality 100.0 % Test CRC 04193581 Copy CRC 04193581 Accurately ripped (confidence 5) [9A7D14A0] Copy OK

Track 2

Filename V:\Pedro\Clifford Brown - Jazz Immortal (1954) [FLAC]\02 - Finders Keepers.wav

Pre-gap length 0:00:02.45

Peak level 97.9 % Track quality 100.0 % Test CRC 295B63D9 Copy CRC 295B63D9 Accurately ripped (confidence 5) [66CAD613] Copy OK

Track 3

Filename V:\Pedro\Clifford Brown - Jazz Immortal (1954) [FLAC]\03 - Joy Spring.wav

Pre-gap length 0:00:03.28

Peak level 97.9 % Track quality 100.0 % Test CRC FA1565A0 Copy CRC FA1565A0 Accurately ripped (confidence 5) [2A86EF94] Copy OK

Track 4

Filename V:\Pedro\Clifford Brown - Jazz Immortal (1954) [FLAC]\04 - Gone With The Wind.wav

Pre-gap length 0:00:02.73

Peak level 97.9 % Track quality 100.0 % Test CRC 72F83284 Copy CRC 72F83284 Accurately ripped (confidence 5) [77736A85] Copy OK

Track 5

Filename V:\Pedro\Clifford Brown - Jazz Immortal (1954) [FLAC]\05 - Bones For Jones.wav

Pre-gap length 0:00:02.50

Peak level 97.9 % Track quality 100.0 % Test CRC B071D0FC Copy CRC B071D0FC Accurately ripped (confidence 5) [7D957EB6] Copy OK

Track 6

Filename V:\Pedro\Clifford Brown - Jazz Immortal (1954) [FLAC]\06 - Blueberry Hill.wav

Pre-gap length 0:00:02.30

Peak level 97.9 % Track quality 100.0 % Test CRC 6D88C71F Copy CRC 6D88C71F Accurately ripped (confidence 5) [AE22E1DA] Copy OK

Track 7

Filename V:\Pedro\Clifford Brown - Jazz Immortal (1954) [FLAC]\07 - Tiny Capers.wav

Pre-gap length 0:00:02.60

Peak level 97.9 % Track quality 100.0 % Test CRC 8E31F1F4 Copy CRC 8E31F1F4 Accurately ripped (confidence 5) [0C8D99F0] Copy OK

Track 8

Filename V:\Pedro\Clifford Brown - Jazz Immortal (1954) [FLAC]\08 - Tiny Capers (Alternate).wav

Pre-gap length 0:00:03.09

Peak level 97.9 % Track quality 100.0 % Test CRC 20C86684 Copy CRC 20C86684 Accurately ripped (confidence 3) [77CAF83B] Copy OK

Track 9

Filename V:\Pedro\Clifford Brown - Jazz Immortal (1954) [FLAC]\09 - Gone With The Wind (Alternate).wav

Pre-gap length 0:00:02.58

Peak level 90.5 % Track quality 100.0 % Test CRC 1DA0E4C8 Copy CRC 1DA0E4C8 Accurately ripped (confidence 3) [8B361664] Copy OK

All tracks accurately ripped

No errors occurred

End of status report
 
AUDIOCHECKER v1.2 - by Dester - opdester@freemail.hu~~~~~~~~~~~~~~~~~

1 -===- E:\Up-Down\Clifford Brown - Jazz Immortal\01 - Daahoud.flac Extracted successfully Conclusion: This track looks like CDDA with probability 100%

2 -===- E:\Up-Down\Clifford Brown - Jazz Immortal\02 - Finders Keepers.flac Extracted successfully Conclusion: This track looks like CDDA with probability 100%

3 -===- E:\Up-Down\Clifford Brown - Jazz Immortal\03 - Joy Spring.flac Extracted successfully Conclusion: This track looks like CDDA with probability 100%

4 -===- E:\Up-Down\Clifford Brown - Jazz Immortal\04 - Gone With The Wind.flac Extracted successfully Conclusion: This track looks like CDDA with probability 100%

5 -===- E:\Up-Down\Clifford Brown - Jazz Immortal\05 - Bones For Jones.flac Extracted successfully Conclusion: This track looks like CDDA with probability 100%

6 -===- E:\Up-Down\Clifford Brown - Jazz Immortal\06 - Blueberry Hill.flac Extracted successfully Conclusion: This track looks like CDDA with probability 99%

7 -===- E:\Up-Down\Clifford Brown - Jazz Immortal\07 - Tiny Capers.flac Extracted successfully Conclusion: This track looks like CDDA with probability 100%

8 -===- E:\Up-Down\Clifford Brown - Jazz Immortal\08 - Tiny Capers (Alternate).flac Extracted successfully Conclusion: This track looks like CDDA with probability 100%

9 -===- E:\Up-Down\Clifford Brown - Jazz Immortal\09 - Gone With The Wind (Alternate).flac Extracted successfully Conclusion: This track looks like CDDA with probability 100%


Трекер:  [ 28-Янв-2012 08:11 ]

  

Скачать .torrent

Размер .torrent файла 19 KB


Размер: 112 MB
Хэш (hash) релиза: d3e6023ea982130212d14f46a7f345470274f0ed

Еще никто не оставлял запись к записи скачать торрент Clifford Brown - Jazz Immortal {RVG Edition} - 1954, FLAC . Будь первым!

!Обратная связь