Скачать через торрент музыку Clifford Brown - Memorial Album бесплатно без регистрации torrent

Если у вас наблюдаются проблемы со скриншотами, переходом по ссылками, скачиванием торрентов - проблемы в блокировщике рекламы AdBlock. #хорошегоДня!


Статистика раздачи
Размер:  244 MB   |    Зарегистрирован:  5 лет 8 месяцев   |    .torrent скачан:  27 раз   |   
Раздают:  1  
   
Загрузка...
 
Автор Сообщение

Umakiro

avatar Umakiro


Clifford Brown - Memorial Album (RVG Edition)
Жанр: Bop / Hard Bop
Год выпуска диска: 2001
Производитель диска: Blue Note: RVG Edition (7243 5 32141 2 8)
Аудио кодек: APE
Тип рипа: image+.cue
Битрейт аудио: lossless
Продолжительность: 1:11:12
Трэклист:
01. Bellarosa (4:15)
02. Carvin' The Rock (3:56)
03. Cookin' (3:14)
04. Brownie Speaks (3:47)
05. De-Dah (4:51)
06. You Got To My Head (4:20)
07. Carvin' The Rock (alternate take #1) (3:52)
08. Cookin' (alternate take) (3:09)
09. Carvin' The Rock (alternate take #2) (4:06)
10. Wail Bait (4:03)
11. Hymn Of The Orient (4:07)
12. Brownie Eyes (3:56)
13. Cherokee (3:27)
14. Easy Living (3:44)
15. Minor Mood (4:35)
16. Wail Bait (alternate take) (4:07)
17. Cherokee (alternate take) (3:42)
18. Hymn Of The Orient (alternate take) (4:02)

Clifford Brown - trumpet
Lou Donaldson - alto sax (#1-9)
Gigi Gryce - alto sax, flute (#10-18)
Charlie Rouse - tenor sax (#10-18)
Elmo Hope - piano (#1-9)
John Lewis - piano (#10-18)
Percy Heath - bass
Philly Joe Jones - drums (#1-9)
Art Blakey - drums (#10-18)

#1-9 recorded on June 9, 1953 at WOR Studios, NY City
#10-18 recorded on August 28, 1953 at Audio Video Studios, NY City

Mastered in 2001 by Rudy Van Gelder

За рип спасибо orsokapo
 
Exact Audio Copy V0.99 prebeta 4 from 23. January 2008

EAC extraction logfile from 20. March 2009, 15:22

Clifford Brown / Memorial Album

Used drive : PLEXTOR DVDR PX-800A Adapter: 0 ID: 0

Read mode : SecureUtilize accurate stream : YesDefeat audio cache : YesMake use of C2 pointers : No

Read offset correction : 48Overread into Lead-In and Lead-Out : NoFill up missing offset samples with silence : YesDelete leading and trailing silent blocks : NoNull samples used in CRC calculations : YesUsed interface : Installed external ASPI interface

Used output format : Internal WAV RoutinesSample format : 44.100 Hz; 16 Bit; Stereo

TOC of the extracted CD

Track | Start | Length | Start sector | End sector --------------------------------------------------------- 1 | 0:00.00 | 4:14.49 | 0 | 19098 2 | 4:14.49 | 3:56.18 | 19099 | 36816 3 | 8:10.67 | 3:14.09 | 36817 | 51375 4 | 11:25.01 | 3:46.45 | 51376 | 68370 5 | 15:11.46 | 4:51.08 | 68371 | 90203 6 | 20:02.54 | 4:19.52 | 90204 | 109680 7 | 24:22.31 | 3:51.69 | 109681 | 127074 8 | 28:14.25 | 3:08.44 | 127075 | 141218 9 | 31:22.69 | 4:05.40 | 141219 | 159633 10 | 35:28.34 | 4:02.62 | 159634 | 177845 11 | 39:31.21 | 4:07.11 | 177846 | 196381 12 | 43:38.32 | 3:56.00 | 196382 | 214081 13 | 47:34.32 | 3:27.16 | 214082 | 229622 14 | 51:01.48 | 3:44.04 | 229623 | 246426 15 | 54:45.52 | 4:34.70 | 246427 | 267046 16 | 59:20.47 | 4:07.16 | 267047 | 285587 17 | 63:27.63 | 3:42.14 | 285588 | 302251 18 | 67:10.02 | 4:01.51 | 302252 | 320377

Range status and errors

Selected range

Filename F:\EAC-TEMP\Clifford Brown - Memorial Album.wav

Peak level 97.9 % Range quality 99.9 % Test CRC B6FF9946 Copy CRC B6FF9946 Copy OK

No errors occurred

End of status report


Трекер:  [ 28-Янв-2012 08:11 ]

  

Скачать .torrent

Размер .torrent файла 20 KB


Размер: 244 MB
Хэш (hash) релиза: b4e0581f2d320b1e5731542143d7269f98791da8

Еще никто не оставлял запись к записи скачать торрент Clifford Brown - Memorial Album . Будь первым!

!Обратная связь