Скачать через торрент музыку Cannonball Adderley - Somethin Else - 1999, FLAC бесплатно без регистрации torrent

Если у вас наблюдаются проблемы со скриншотами, переходом по ссылками, скачиванием торрентов - проблемы в блокировщике рекламы AdBlock. #хорошегоДня!


Статистика раздачи
Размер:  315 MB   |    Зарегистрирован:  5 лет 8 месяцев   |    .torrent скачан:  35 раз   |   
Раздают:  1  
   
Загрузка...
 
Автор Сообщение

Umakiro

avatar Umakiro


Cannonball Adderley - Somethin' Else

Жанр: JAZZ
Год выпуска диска:p.1990 c.1999
Производитель диска: USA \Blue Note Records
Аудио кодек: FLAC
Тип рипа: image+.cue
Битрейт аудио: lossless
Продолжительность: 44:00
Трэклист:
1. Autumn Leaves (1999 Digital Remaster) (Rudy Van Gelder Edition) 10:59
2. Love For Sale (Rudy Van Gelder 24Bit Mastering) (1999 Digital Remaster) 7:04
3. Somethin' Else (Rudy Van Gelder 24Bit Mastering) (1999 Digital Remaster) 8:14
4. One For Daddy-O (1999 Digital Remaster) (Rudy Van Gelder Edition) 8:25
5. Dancing In The Dark (Rudy Van Gelder 24Bit Mastering) (1999 Digital Remaster)4:07
6. Bangoon (aka Alison's Uncle) (Rudy Van Gelder 24Bit Mastering) (1999 DigitalRemaster) 5:09
Exact Audio Copy V0.99 prebeta 4 from 23. January 2008

EAC extraction logfile from 19. August 2008, 15:21

Cannonball Adderley / Somethin' Else

Used drive : TSSTcorpCDDVDW SH-S202J Adapter: 1 ID: 0

Read mode : Secure
Utilize accurate stream : Yes
Defeat audio cache : Yes
Make use of C2 pointers : No

Read offset correction : 6
Overread into Lead-In and Lead-Out : No
Fill up missing offset samples with silence : Yes
Delete leading and trailing silent blocks : No
Null samples used in CRC calculations : Yes
Used interface : Installed external ASPI interface

Used output format : User Defined Encoder
Selected bitrate : 768 kBit/s
Quality : High
Add ID3 tag : No
Command line compressor : D:\Program Files\Exact Audio Copy\FLAC\FLAC.EXE
Additional command line options : -6 -V -T "ARTIST=%a" -T "TITLE=%t" -T "ALBUM=%g" -T "DATE=%y" -T "TRACKNUMBER=%n" -T "GENRE=%m" -T "COMMENT=%e" %s -o %d

TOC of the extracted CD

Track | Start | Length | Start sector | End sector
---------------------------------------------------------
1 | 0:00.00 | 10:59.39 | 0 | 49463
2 | 10:59.39 | 7:04.48 | 49464 | 81311
3 | 18:04.12 | 8:14.02 | 81312 | 118363
4 | 26:18.14 | 8:25.34 | 118364 | 156272
5 | 34:43.48 | 4:07.15 | 156273 | 174812
6 | 38:50.63 | 5:09.27 | 174813 | 198014

Range status and errors

Selected range

Filename E:\РОЗДАЧА\Cannonball Adderley - Somethin' Else.wav

Peak level 97.9 %
Range quality 100.0 %
Test CRC CD3B4FFF
Copy CRC CD3B4FFF
Copy OK

No errors occurred

AccurateRip summary

Track 1 accurately ripped (confidence 13) [06F64973]
Track 2 accurately ripped (confidence 13) [BFA2D66D]
Track 3 accurately ripped (confidence 13) [A9A80BF0]
Track 4 accurately ripped (confidence 13) [02B430F4]
Track 5 accurately ripped (confidence 13) [EFD6D9A0]
Track 6 accurately ripped (confidence 13) [D35D6A30]

All tracks accurately ripped

End of status report


Трекер:  [ 28-Янв-2012 08:10 ]

  

Скачать .torrent

Размер .torrent файла 13 KB


Размер: 315 MB
Хэш (hash) релиза: f137cf9f8b02d9d90c581471bd86ebf0d9f0164c

Еще никто не оставлял запись к записи скачать торрент Cannonball Adderley - Somethin Else - 1999, FLAC . Будь первым!

!Обратная связь