Скачать через торрент музыку Bud Powell - The Scene Changes {RVG Edition} - 1958, FLAC бесплатно без регистрации torrent

Если у вас наблюдаются проблемы со скриншотами, переходом по ссылками, скачиванием торрентов - проблемы в блокировщике рекламы AdBlock. #хорошегоДня!


Статистика раздачи
Размер:  295 MB   |    Зарегистрирован:  5 лет 8 месяцев   |    .torrent скачан:  31 раз   |   
Раздают:  1  
   
Загрузка...
 
Автор Сообщение

Umakiro

avatar Umakiro


Bud Powell - The Scene Changes {RVG Edition}

Жанр: Bop
Год выпуска диска: 1958
Производитель диска: UK
Аудио кодек: FLAC
Тип рипа: image+.cue
Битрейт аудио: lossless
Продолжительность: 45:22
Лейбл: Blue Note
Источник: NoNaMe

Трэклист:
1 Cleopatra's Dream
2 Duid Deed
3 Down With It
4 Danceland
5 Borderick
6 Crossin' The Channel
7 Comin' Up
8 Gettin' There
9 The Scene Changes
10 Comin' Up (Alternate Take)

Музыканты:
Bud Powell, piano
Paul Chambers, bass
Art Taylor, drums

Originally recorded on December 28, 1958 at the Van Gelder Studio, Hackensack, New Jersey
Remastered in 2003 by Rudy Van Gelder
 
Exact Audio Copy V0.99 prebeta 3 from 28. July 2007

EAC extraction logfile from 13. August 2009, 21:21

Bud Powell / The Scene Changes

Used drive : HL-DT-STDVD-RAM GSA-H55N Adapter: 0 ID: 0

Read mode : SecureUtilize accurate stream : YesDefeat audio cache : YesMake use of C2 pointers : No

Read offset correction : 102Overread into Lead-In and Lead-Out : NoFill up missing offset samples with silence : YesDelete leading and trailing silent blocks : NoNull samples used in CRC calculations : NoUsed interface : Installed external ASPI interface

Used output format : User Defined EncoderSelected bitrate : 768 kBit/sQuality : HighAdd ID3 tag : NoCommand line compressor : C:\Program Files\Exact Audio Copy\FLAC\FLAC.EXEAdditional command line options : -6 -V -T "ARTIST=%a" -T "TITLE=%t" -T "ALBUM=%g" -T "DATE=%y" -T "TRACKNUMBER=%n" -T "GENRE=%m" -T "COMMENT=%e" %s -o %d

TOC of the extracted CD

Track | Start | Length | Start sector | End sector --------------------------------------------------------- 1 | 0:00.00 | 4:24.48 | 0 | 19847 2 | 4:24.48 | 5:08.16 | 19848 | 42963 3 | 9:32.64 | 4:01.02 | 42964 | 61040 4 | 13:33.66 | 3:44.13 | 61041 | 77853 5 | 17:18.04 | 2:00.48 | 77854 | 86901 6 | 19:18.52 | 3:31.23 | 86902 | 102749 7 | 22:50.00 | 7:57.41 | 102750 | 138565 8 | 30:47.41 | 5:04.03 | 138566 | 161368 9 | 35:51.44 | 4:04.17 | 161369 | 179685 10 | 39:55.61 | 5:26.68 | 179686 | 204203

Range status and errors

Selected range

Filename C:\Users\Миша\Documents\Bud Powell - The Scene Changes\Bud Powell - The Scene Changes.wav

Peak level 97.9 % Range quality 99.9 % Copy CRC 5A7DEADE Copy OK

No errors occurred

AccurateRip summary

Track 1 accurately ripped (confidence 11) [8557DA41]Track 2 accurately ripped (confidence 11) [1DB6474D]Track 3 accurately ripped (confidence 11) [0048B58C]Track 4 accurately ripped (confidence 11) [2825BF50]Track 5 accurately ripped (confidence 11) [595CF14A]Track 6 accurately ripped (confidence 11) [4A59046E]Track 7 accurately ripped (confidence 11) [8E27C51B]Track 8 accurately ripped (confidence 10) [D40D9C1D]Track 9 accurately ripped (confidence 11) [8B3715F9]Track 10 accurately ripped (confidence 11) [68B041EA]

All tracks accurately ripped

End of status report
 
AUDIOCHECKER v1.2 - by Dester - opdester@freemail.hu~~~~~~~~~~~~~~~~~

1 -===- E:\Up-Down\Bud Powell - The Scene Changes\Bud Powell - The Scene Changes.flac Extracted successfully Conclusion: This track looks like CDDA with probability 100%


Трекер:  [ 28-Янв-2012 08:10 ]

  

Скачать .torrent

Размер .torrent файла 12 KB


Размер: 295 MB
Хэш (hash) релиза: fb25c152a2264c9559aaae6a18a136032b94ebe9

Еще никто не оставлял запись к записи скачать торрент Bud Powell - The Scene Changes {RVG Edition} - 1958, FLAC . Будь первым!

!Обратная связь