Скачать через торрент музыку Bobby Hutcherson - Dialogue бесплатно без регистрации torrent

Если у вас наблюдаются проблемы со скриншотами, переходом по ссылками, скачиванием торрентов - проблемы в блокировщике рекламы AdBlock. #хорошегоДня!


Статистика раздачи
Размер:  296 MB   |    Зарегистрирован:  5 лет 8 месяцев   |    .torrent скачан:  25 раз   |   
Раздают:  1  
   
Загрузка...
 
Автор Сообщение

Umakiro

avatar Umakiro


Bobby Hutcherson - Dialogue (RVG Edition)
Жанр: Hard Bop, Free Jazz
Год выпуска диска: 1965/2002
Производитель диска: USA
Лейбл: Blue Note
Аудио кодек: FLAC
Тип рипа: image+.cue
Битрейт аудио: lossless
Продолжительность: 45:23
Треклист:
1. Catta (7:19)
2. Idle While (6:37)
3. Les Noirs Marchant (6:41)
4. Dialogue (10:00)
5. Ghetto Lights (6:16)
6. Jasper (8:29) *
* -- bonus track, not on original LP
Доп. информация:
Bobby Hutcherson - vibes & marimba
Freddie Hubbard - trumpet
Sam Rivers - tenor sax, soprano sax, bass clarinet & flute
Andrew Hill - piano
Richard Davis - bass
Joe Chambers - drums
Recorded at the Van Gelder Studio, Englewood Cliffs, New Jersey on April 3, 1965.
Remastered in 2001 by Rudy Van Gelder.
Exact Audio Copy V0.99 prebeta 5 from 4. May 2009

EAC extraction logfile from 12. July 2010, 8:24

Bobby Hutcherson / Dialogue

Used drive : HL-DT-STDVD-RAM GH22NP20 Adapter: 0 ID: 0

Read mode : Secure
Utilize accurate stream : Yes
Defeat audio cache : Yes
Make use of C2 pointers : No

Read offset correction : 102
Overread into Lead-In and Lead-Out : No
Fill up missing offset samples with silence : Yes
Delete leading and trailing silent blocks : No
Null samples used in CRC calculations : Yes
Used interface : Native Win32 interface for Win NT & 2000

Used output format : User Defined Encoder
Selected bitrate : 128 kBit/s
Quality : High
Add ID3 tag : No
Command line compressor : C:\Program Files\Exact Audio Copy\Flac\flac.exe
Additional command line options : -8 - V -T "ARTIST"=%a -T "TITLE=%t" -T "ALBUM=%g" -T "DATA=%y" -T "TRACKNUMBER=%n" -T "GENRE=%m" -T "COMMENT=%e" %s - 0 %d

TOC of the extracted CD

Track | Start | Length | Start sector | End sector
---------------------------------------------------------
1 | 0:00.00 | 7:19.08 | 0 | 32932
2 | 7:19.08 | 6:37.31 | 32933 | 62738
3 | 13:56.39 | 6:41.23 | 62739 | 92836
4 | 20:37.62 | 9:59.64 | 92837 | 137825
5 | 30:37.51 | 6:16.17 | 137826 | 166042
6 | 36:53.68 | 8:29.34 | 166043 | 204251

Range status and errors

Selected range

Filename D:\торрент\Мои раздачи\Bobby Hutcherson - Dialogue.wav

Peak level 97.9 %
Range quality 100.0 %
Test CRC 728E6F01
Copy CRC 728E6F01
Copy OK

No errors occurred

End of status report


Трекер:  [ 28-Янв-2012 08:08 ]

  

Скачать .torrent

Размер .torrent файла 12 KB


Размер: 296 MB
Хэш (hash) релиза: 29646c8d485da45440f30fc2a505e3342cb2cc4e

Еще никто не оставлял запись к записи скачать торрент Bobby Hutcherson - Dialogue . Будь первым!

!Обратная связь