Скачать через торрент музыку Bobby Hutcherson - Happenings {RVG Edition} - 1966, FLAC бесплатно без регистрации torrent

Если у вас наблюдаются проблемы со скриншотами, переходом по ссылками, скачиванием торрентов - проблемы в блокировщике рекламы AdBlock. #хорошегоДня!


Статистика раздачи
Размер:  268 MB   |    Зарегистрирован:  5 лет 8 месяцев   |    .torrent скачан:  39 раз   |   
Раздают:  1  
   
Загрузка...
 
Автор Сообщение

Umakiro

avatar Umakiro


Bobby Hutcherson - Happenings {RVG Edition}

Жанр: Jazz, Post-Bop
Год выпуска диска: 1966
Производитель диска: USA
Аудио кодек: FLAC
Тип рипа: image+.cue
Битрейт аудио: lossless
Продолжительность: 43:55
Лейбл: Blue Note

Трэклист:
1 Aquarian Moon
2 Bouquet
3 Rojo
4 Maiden Voyage
5 Head Start
6 When You Are Near
7 The Omen

Музыканты:
Bobby Hutcherson, vibes, marimba
Herbie Hancock, piano
Bob Cranshaw, bass
Joe Chambers, drums
Exact Audio Copy V0.99 prebeta 4 from 23. January 2008

Отчёт EAC об извлечении, выполненном 4. февраля 2009, 17:58

Bobby Hutcherson / Happenings

Дисковод: _NEC NR-7900A Adapter: 3 ID: 1

Режим чтения : Достоверность
Использование точного потока : Да
Отключение кэша аудио : Да
Использование указателей C2 : Нет

Коррекция смещения при чтении : 685
Способность читать области Lead-in и Lead-out : Нет
Заполнение пропущенных сэмплов тишиной : Да
Удаление блоков с тишиной в начале и конце : Нет
При вычислениях CRC использовались нулевые сэмплы : Да
Интерфейс : Установленный внешний ASPI-интерфейс

Выходной формат : Пользовательский кодировщик
Выбранный битрейт : 768 kBit/s
Качество : Высокий
Добавление ID3-тэга : Нет
Утилита сжатия : C:\Program Files\Exact Audio Copy\FLAC\FLAC.EXE
Дополнительные параметры : -6 -V -T "ARTIST=%a" -T "TITLE=%t" -T "ALBUM=%g" -T "DATE=%y" -T "TRACKNUMBER=%n" -T "GENRE=%m" -T "COMMENT=%e" %s -o %d

TOC извлечённого CD

Трек | Старт | Длительность | Начальный сектор | Конечный сектор
---------------------------------------------------------------------
1 | 0:00.00 | 7:45.30 | 0 | 34904
2 | 7:45.30 | 8:10.06 | 34905 | 71660
3 | 15:55.36 | 6:03.71 | 71661 | 98956
4 | 21:59.32 | 5:49.73 | 98957 | 125204
5 | 27:49.30 | 5:16.05 | 125205 | 148909
6 | 33:05.35 | 3:51.03 | 148910 | 166237
7 | 36:56.38 | 6:59.08 | 166238 | 197670

Характеристики диапазона извлечения и сообщения об ошибках

Выбранный диапазон

Имя файла D:\My Music\ext\Архивы\Bobby Hutcherson - Happenings\Bobby Hutcherson - Happenings.wav

Пиковый уровень 97.9 %
Качество диапазона 99.9 %
CRC копии 0361339C
Копирование... OK

Ошибок не произошло

AccurateRip: сводка

Трек 1 точное извлечение (доверие 9) [D10E9D44]
Трек 2 точное извлечение (доверие 9) [7F806372]
Трек 3 точное извлечение (доверие 9) [EABC3CBC]
Трек 4 точное извлечение (доверие 9) [04AA69C8]
Трек 5 точное извлечение (доверие 9) [30F46666]
Трек 6 точное извлечение (доверие 9) [9DFC0121]
Трек 7 точное извлечение (доверие 9) [3D236F83]

Все треки извлечены точно

Конец отчёта
Доп. информация: Originally recorded on February 6, 1966 at the Van Gelder Studio, Englewood Cliffs, New Jersey
Remastered in 2006 by Rudy Van Gelder

Трекер:  [ 28-Янв-2012 08:08 ]

  

Скачать .torrent

Размер .torrent файла 11 KB


Размер: 268 MB
Хэш (hash) релиза: bf9d1d4a46f38d1bc4f3d13a98b2b9eaa8d00c3a

Еще никто не оставлял запись к записи скачать торрент Bobby Hutcherson - Happenings {RVG Edition} - 1966, FLAC . Будь первым!

!Обратная связь