Скачать через торрент музыку Blue Mitchell - Down With It {RVG Edition} - 1965, FLAC бесплатно без регистрации torrent

Если у вас наблюдаются проблемы со скриншотами, переходом по ссылками, скачиванием торрентов - проблемы в блокировщике рекламы AdBlock. #хорошегоДня!


Статистика раздачи
Размер:  277 MB   |    Зарегистрирован:  5 лет 8 месяцев   |    .torrent скачан:  28 раз   |   
Раздают:  1  
   
Загрузка...
 
Автор Сообщение

Umakiro

avatar Umakiro


Blue Mitchell - Down With It {RVG Edition}

Жанр: Hard Bop
Год выпуска диска: 1965
Производитель диска: UK
Аудио кодек: FLAC
Тип рипа: image+.cue
Битрейт аудио: lossless
Продолжительность: 41:41
Лейбл: Blue Note
Источник: NoNaMe

Трэклист:
1. Hi-Heel Sneakers
2. Perception
3. Alone, Alone And Alone
4. March On Selma
5. One Shirt
6. Samba De Stacy

Музыканты:
Blue Mitchell, trumpet
Junior Cook, tenor sax
Chick Corea, piano
Gene Taylor, bass
Al Foster, drums

Originally recorded on July 14, 1965 at the Van Gelder Studio, Englewood Cliffs, New Jersey
Remastered in 2004 by Rudy Van Gelder
 
Exact Audio Copy V0.99 prebeta 3 from 28. July 2007

Отчёт EAC об извлечении, выполненном 13. августа 2008, 23:30

Blue Mitchell / Down With It

Дисковод: _NEC DVD_RW ND-3540A Adapter: 2 ID: 0

Режим чтения : ДостоверностьИспользование точного потока : ДаОтключение кэша аудио : ДаИспользование указателей C2 : Нет

Коррекция смещения при чтении : 48Способность читать области Lead-in и Lead-out : НетЗаполнение пропущенных сэмплов тишиной : ДаУдаление блоков с тишиной в начале и конце : НетПри вычислениях CRC использовались нулевые сэмплы : ДаИнтерфейс : Установленный внешний ASPI-интерфейс

Выходной формат : Пользовательский кодировщикВыбранный битрейт : 768 kBit/sКачество : ВысокийДобавление ID3-тэга : ДаУтилита сжатия : C:\Program Files\Exact Audio Copy\FLAC\FLAC.EXEДополнительные параметры : -6 -V -T "ARTIST=%a" -T "TITLE=%t" -T "ALBUM=%g" -T "DATE=%y" -T "TRACKNUMBER=%n" -T "GENRE=%m" -T "COMMENT=%e" %s -o %d

TOC извлечённого CD

Трек | Старт | Длительность | Начальный сектор | Конечный сектор --------------------------------------------------------------------- 1 | 0:00.00 | 8:25.49 | 0 | 37923 2 | 8:25.49 | 5:42.27 | 37924 | 63600 3 | 14:08.01 | 7:45.50 | 63601 | 98525 4 | 21:53.51 | 6:16.25 | 98526 | 126750 5 | 28:10.01 | 7:30.30 | 126751 | 160530 6 | 35:40.31 | 6:00.72 | 160531 | 187602

Характеристики диапазона извлечения и сообщения об ошибках

Выбранный диапазон

Имя файла C:\Documents and Settings\Миша\Мои документы\Blue Mitchell - Down With It\Blue Mitchell - Down With It.wav

Пиковый уровень 97.9 % Качество диапазона 99.9 % CRC копии 8B7BD517 Копирование... OK

Ошибок не произошло

AccurateRip: сводка

Трек 1 нет в базе данныхТрек 2 нет в базе данныхТрек 3 нет в базе данныхТрек 4 нет в базе данныхТрек 5 нет в базе данныхТрек 6 нет в базе данных

Ни одного трека нет в базе AccurateRip

Конец отчёта
 
AUDIOCHECKER v1.2 - by Dester - opdester@freemail.hu~~~~~~~~~~~~~~~~~

1 -===- E:\Up-Down\Blue Mitchell - Down With It\Blue Mitchell - Down With It.flac Extracted successfully Conclusion: This track looks like CDDA with probability 100%


Трекер:  [ 28-Янв-2012 08:07 ]

  

Скачать .torrent

Размер .torrent файла 11 KB


Размер: 277 MB
Хэш (hash) релиза: cc9a80f5392363f9bc417eef755329232862435a

Еще никто не оставлял запись к записи скачать торрент Blue Mitchell - Down With It {RVG Edition} - 1965, FLAC . Будь первым!

!Обратная связь