Скачать через торрент музыку Blue Mitchell - Boss Horn - 1966, FLAC бесплатно без регистрации torrent

Если у вас наблюдаются проблемы со скриншотами, переходом по ссылками, скачиванием торрентов - проблемы в блокировщике рекламы AdBlock. #хорошегоДня!


Статистика раздачи
Размер:  245 MB   |    Зарегистрирован:  5 лет 8 месяцев   |    .torrent скачан:  26 раз   |   
Раздают:  1  
   
Загрузка...
 
Автор Сообщение

Umakiro

avatar Umakiro


Blue Mitchell - Boss Horn {RVG Edition}

Жанр: Hard Bop
Год выпуска диска: 1966
Производитель диска: UK
Аудио кодек: FLAC
Тип рипа: image+.cue
Битрейт аудио: lossless
Продолжительность: 38:57
Лейбл: Blue Note
Источник: NoNaMe

Трэклист:
1. Millie
2. O Mama Enit
3. I Should Care
4. Rigor Mortez
5. Tones For Joan's Bones
6. Straight Up And Down

Музыканты:
Blue Mitchell - trumpet
Julian Priester - trombone
Jerry Dodgion - alto sax, flute
Junior Cook - tenor sax
Pepper Adams - baritone sax
Cedar Walton (1-4), Chick Corea (5,6) - piano
Gene Taylor - bass
Mickey Roker - drums
Duke Pearson - arranger

Originally recorded on November 17, 1966 at the Van Gelder Studio, Englewood Cliffs, New Jersey
Remastered in 2004 by Rudy Van Gelder
 
Exact Audio Copy V0.99 prebeta 3 from 28. July 2007

Отчёт EAC об извлечении, выполненном 13. августа 2008, 13:18

Blue Mitchell / Boss Horn

Дисковод: _NEC DVD_RW ND-3540A Adapter: 2 ID: 0

Режим чтения : ДостоверностьИспользование точного потока : ДаОтключение кэша аудио : ДаИспользование указателей C2 : Нет

Коррекция смещения при чтении : 48Способность читать области Lead-in и Lead-out : НетЗаполнение пропущенных сэмплов тишиной : ДаУдаление блоков с тишиной в начале и конце : НетПри вычислениях CRC использовались нулевые сэмплы : ДаИнтерфейс : Установленный внешний ASPI-интерфейс

Выходной формат : Пользовательский кодировщикВыбранный битрейт : 768 kBit/sКачество : ВысокийДобавление ID3-тэга : ДаУтилита сжатия : C:\Program Files\Exact Audio Copy\FLAC\FLAC.EXEДополнительные параметры : -6 -V -T "ARTIST=%a" -T "TITLE=%t" -T "ALBUM=%g" -T "DATE=%y" -T "TRACKNUMBER=%n" -T "GENRE=%m" -T "COMMENT=%e" %s -o %d

TOC извлечённого CD

Трек | Старт | Длительность | Начальный сектор | Конечный сектор --------------------------------------------------------------------- 1 | 0:00.00 | 6:15.70 | 0 | 28194 2 | 6:15.70 | 5:34.19 | 28195 | 53263 3 | 11:50.14 | 7:31.33 | 53264 | 87121 4 | 19:21.47 | 6:21.67 | 87122 | 115763 5 | 25:43.39 | 6:37.36 | 115764 | 145574 6 | 32:21.00 | 6:36.62 | 145575 | 175336

Характеристики диапазона извлечения и сообщения об ошибках

Выбранный диапазон

Имя файла C:\Documents and Settings\Миша\Мои документы\Blue Mitchell - Boss Horn\Blue Mitchell - Boss Horn.wav

Пиковый уровень 97.9 % Качество диапазона 100.0 % CRC копии E8D95B16 Копирование... OK

Ошибок не произошло

AccurateRip: сводка

Трек 1 точность не определена (достоверность 2) [3AAF21CD], AccurateRip вернул [55C06FC1]Трек 2 точность не определена (достоверность 3) [F7701686], AccurateRip вернул [C4DCC24A]Трек 3 точность не определена (достоверность 3) [15EFDD47], AccurateRip вернул [893B7593]Трек 4 точность не определена (достоверность 3) [A6B9B80B], AccurateRip вернул [7602E543]Трек 5 точность не определена (достоверность 3) [84BB6109], AccurateRip вернул [302471B9]Трек 6 точность не определена (достоверность 3) [0C3BFD4C], AccurateRip вернул [6538C5A4]

Ни один трек не прошёл проверки на точностьВ вашей базе может быть иной вариант штамповки диска

Конец отчёта
 
AUDIOCHECKER v1.2 - by Dester - opdester@freemail.hu~~~~~~~~~~~~~~~~~

1 -===- E:\Up-Down\Blue Mitchell - Boss Horn\Blue Mitchell - Boss Horn.flac Extracted successfully Conclusion: This track looks like CDDA with probability 100%


Трекер:  [ 28-Янв-2012 07:44 ]

  

Скачать .torrent

Размер .torrent файла 20 KB


Размер: 245 MB
Хэш (hash) релиза: 970c8954de42a6d66788e9f4bcd903abbff9698e

Еще никто не оставлял запись к записи скачать торрент Blue Mitchell - Boss Horn - 1966, FLAC . Будь первым!

!Обратная связь