Скачать через торрент музыку Blue Mitchell - The Thing To Do {RVG Edition} - 1964, APE бесплатно без регистрации torrent

Если у вас наблюдаются проблемы со скриншотами, переходом по ссылками, скачиванием торрентов - проблемы в блокировщике рекламы AdBlock. #хорошегоДня!


Статистика раздачи
Размер:  265 MB   |    Зарегистрирован:  5 лет 8 месяцев   |    .torrent скачан:  31 раз   |   
Раздают:  1  
   
Загрузка...
 
Автор Сообщение

Umakiro

avatar Umakiro


Blue Mitchell - The Thing To Do {RVG Edition}

Жанр: Hard Bop
Год выпуска диска: 1964
Производитель диска: UK
Аудио кодек: APE
Тип рипа: image+.cue
Битрейт аудио: lossless
Продолжительность: 40:03
Лейбл: Blue Note

Трэклист:
1 Fungii Mama
2 Mona's Mood
3 The Thing to Do
4 Step Lightly
5 Chick's Tune

Музыканты:
Blue Mitchell, trumpet
Junior Cook, tenor sax
Chick Corea, piano
Gene Taylor, bass
Al Foster, drums

Originally recorded on July 30, 1964 at the Van Gelder Studio, Englewood Cliffs, New Jersey
Remastered in 2003 by Rudy Van Gelder
 
Exact Audio Copy V0.99 prebeta 4 from 23. January 2008

Отчёт EAC об извлечении, выполненном 25. августа 2009, 22:37

Blue Mitchell / The Thing To Do

Дисковод: Optiarc DVD RW AD-7200A Adapter: 3 ID: 1

Режим чтения : ДостоверностьИспользование точного потока : ДаОтключение кэша аудио : ДаИспользование указателей C2 : Нет

Коррекция смещения при чтении : 48Способность читать области Lead-in и Lead-out : НетЗаполнение пропущенных сэмплов тишиной : ДаУдаление блоков с тишиной в начале и конце : НетПри вычислениях CRC использовались нулевые сэмплы : ДаИнтерфейс : Установленный внешний ASPI-интерфейс

Выходной формат : Внутренние WAV-операцииФормат сэмплов : 44.100 Гц; 16 бит; стерео

TOC извлечённого CD

Трек | Старт | Длительность | Начальный сектор | Конечный сектор --------------------------------------------------------------------- 1 | 0:00.00 | 7:46.32 | 0 | 34981 2 | 7:46.32 | 5:15.37 | 34982 | 58643 3 | 13:01.69 | 7:03.57 | 58644 | 90425 4 | 20:05.51 | 10:24.01 | 90426 | 137226 5 | 30:29.52 | 9:33.68 | 137227 | 180269

Характеристики диапазона извлечения и сообщения об ошибках

Выбранный диапазон

Имя файла E:\Up-Down\Blue Mitchell - The Thing To Do\Blue Mitchell - The Thing To Do.wav

Пиковый уровень 97.9 % Качество диапазона 100.0 % CRC копии A621719D Копирование... OK

Ошибок не произошло

Конец отчёта
 
AUDIOCHECKER v1.2 - by Dester - opdester@freemail.hu~~~~~~~~~~~~~~~~~

1 -===- E:\Up-Down\Blue Mitchell - The Thing To Do\Blue Mitchell - The Thing To Do.ape Extracted successfully Conclusion: This track looks like CDDA with probability 100%


Трекер:  [ 28-Янв-2012 07:43 ]

  

Скачать .torrent

Размер .torrent файла 11 KB


Размер: 265 MB
Хэш (hash) релиза: c2294d177b8bfdcc30baff3232916b5279653a87

Еще никто не оставлял запись к записи скачать торрент Blue Mitchell - The Thing To Do {RVG Edition} - 1964, APE . Будь первым!

!Обратная связь