Скачать через торрент музыку Baby Face Willette - Stop and Listen бесплатно без регистрации torrent

Если у вас наблюдаются проблемы со скриншотами, переходом по ссылками, скачиванием торрентов - проблемы в блокировщике рекламы AdBlock. #хорошегоДня!


Статистика раздачи
Размер:  245 MB   |    Зарегистрирован:  5 лет 8 месяцев   |    .torrent скачан:  31 раз   |   
Раздают:  1  
   
Загрузка...
 
Автор Сообщение

Umakiro

avatar Umakiro


Baby Face Willette - Stop and Listen
Жанр: Soul-Jazz / Hard Bop / Organ Jazz
Год выпуска диска: 2009
Производитель диска: Blue Note RVG Edition (50999 2 65143 2 1)
Аудио кодек: FLAC
Тип рипа: tracks+.cue
Битрейт аудио: lossless
Продолжительность: 0:49:48
Трэклист:
01. Williow Weep for Me (8:14)
02. Chances Are Few (7:42)
03. Jumpin' Jupiter (5:12)
04. Stop and Listen (4:38)
05. At Last (7:20)
06. Soul Walk (5:24)
07. Worksong (4:53)
08. They Can't Take That Away From Me (6:25)

Grant Gree - guitar
Baby Face Willette - organ
Ben Dixon - drums

Recorded on May 22, 1961 at the Van Gelder Studio, Englewood Cliffs, New Jersey
Remastered in 2008 by Rudy Van Gelder

Автор рипа Mazeppa
 
Exact Audio Copy V0.99 prebeta 5 from 4. May 2009

EAC extraction logfile from 20. July 2009, 14:05

Baby Face Willette / Stop and Listen

Used drive : TSSTcorpCDDVDW SH-S223Q Adapter: 2 ID: 1

Read mode : SecureUtilize accurate stream : YesDefeat audio cache : YesMake use of C2 pointers : No

Read offset correction : 6Overread into Lead-In and Lead-Out : NoFill up missing offset samples with silence : YesDelete leading and trailing silent blocks : NoNull samples used in CRC calculations : YesUsed interface : Installed external ASPI interfaceGap handling : Appended to previous track

Used output format : User Defined EncoderSelected bitrate : 320 kBit/sQuality : HighAdd ID3 tag : NoCommand line compressor : C:\Program Files (x86)\Exact Audio Copy\Flac\flac.exeAdditional command line options : -V -8 -T "artist=%a" -T "title=%t" -T "album=%g" -T "date=%y" -T "tracknumber=%n" -T "genre=%m" %s

TOC of the extracted CD

Track | Start | Length | Start sector | End sector --------------------------------------------------------- 1 | 0:00.00 | 8:14.36 | 0 | 37085 2 | 8:14.36 | 7:41.69 | 37086 | 71729 3 | 15:56.30 | 5:11.39 | 71730 | 95093 4 | 21:07.69 | 4:38.27 | 95094 | 115970 5 | 25:46.21 | 7:19.56 | 115971 | 148951 6 | 33:06.02 | 5:23.63 | 148952 | 173239 7 | 38:29.65 | 4:53.24 | 173240 | 195238 8 | 43:23.14 | 6:24.60 | 195239 | 224098

Track 1

Filename C:\Audio\Baby Face Willette - Stop and Listen (1961) [FLAC] {2008 RVG Edition}\01 - Williow Weep for Me.wav

Pre-gap length 0:00:02.00

Peak level 90.4 % Track quality 100.0 % Test CRC 922B10CF Copy CRC 922B10CF Track not present in AccurateRip database Copy OK

Track 2

Filename C:\Audio\Baby Face Willette - Stop and Listen (1961) [FLAC] {2008 RVG Edition}\02 - Chances Are Few.wav

Pre-gap length 0:00:03.00

Peak level 94.6 % Track quality 100.0 % Test CRC E6E8C224 Copy CRC E6E8C224 Track not present in AccurateRip database Copy OK

Track 3

Filename C:\Audio\Baby Face Willette - Stop and Listen (1961) [FLAC] {2008 RVG Edition}\03 - Jumpin' Jupiter.wav

Pre-gap length 0:00:02.69

Peak level 97.9 % Track quality 100.0 % Test CRC FB86682B Copy CRC FB86682B Track not present in AccurateRip database Copy OK

Track 4

Filename C:\Audio\Baby Face Willette - Stop and Listen (1961) [FLAC] {2008 RVG Edition}\04 - Stop and Listen.wav

Pre-gap length 0:00:03.08

Peak level 97.9 % Track quality 100.0 % Test CRC 2426F1A8 Copy CRC 2426F1A8 Track not present in AccurateRip database Copy OK

Track 5

Filename C:\Audio\Baby Face Willette - Stop and Listen (1961) [FLAC] {2008 RVG Edition}\05 - At Last.wav

Pre-gap length 0:00:03.12

Peak level 97.9 % Track quality 100.0 % Test CRC 456D2CCC Copy CRC 456D2CCC Track not present in AccurateRip database Copy OK

Track 6

Filename C:\Audio\Baby Face Willette - Stop and Listen (1961) [FLAC] {2008 RVG Edition}\06 - Soul Walk.wav

Pre-gap length 0:00:03.92

Peak level 97.9 % Track quality 100.0 % Test CRC 8B2A78A6 Copy CRC 8B2A78A6 Track not present in AccurateRip database Copy OK

Track 7

Filename C:\Audio\Baby Face Willette - Stop and Listen (1961) [FLAC] {2008 RVG Edition}\07 - Worksong.wav

Pre-gap length 0:00:02.66

Peak level 97.9 % Track quality 100.0 % Test CRC E2524CC0 Copy CRC E2524CC0 Track not present in AccurateRip database Copy OK

Track 8

Filename C:\Audio\Baby Face Willette - Stop and Listen (1961) [FLAC] {2008 RVG Edition}\08 - They Can't Take That Away From Me.wav

Pre-gap length 0:00:02.80

Peak level 97.9 % Track quality 100.0 % Test CRC DF226609 Copy CRC DF226609 Track not present in AccurateRip database Copy OK

None of the tracks are present in the AccurateRip database

No errors occurred

End of status report
 
REM GENRE JazzREM DATE 1961REM DISCID 7D0BAB08REM COMMENT "ExactAudioCopy v0.99pb5"PERFORMER "Baby Face Willette"TITLE "Stop and Listen"FILE "01 - Williow Weep for Me.wav" WAVE TRACK 01 AUDIO TITLE "Williow Weep for Me" PERFORMER "Baby Face Willette" INDEX 01 00:00:00 TRACK 02 AUDIO TITLE "Chances Are Few" PERFORMER "Baby Face Willette" INDEX 00 08:11:36FILE "02 - Chances Are Few.wav" WAVE INDEX 01 00:00:00 TRACK 03 AUDIO TITLE "Jumpin' Jupiter" PERFORMER "Baby Face Willette" INDEX 00 07:39:17FILE "03 - Jumpin' Jupiter.wav" WAVE INDEX 01 00:00:00 TRACK 04 AUDIO TITLE "Stop and Listen" PERFORMER "Baby Face Willette" INDEX 00 05:08:33FILE "04 - Stop and Listen.wav" WAVE INDEX 01 00:00:00 TRACK 05 AUDIO TITLE "At Last" PERFORMER "Baby Face Willette" INDEX 00 04:35:18FILE "05 - At Last.wav" WAVE INDEX 01 00:00:00 TRACK 06 AUDIO TITLE "Soul Walk" PERFORMER "Baby Face Willette" INDEX 00 07:15:62FILE "06 - Soul Walk.wav" WAVE INDEX 01 00:00:00 TRACK 07 AUDIO TITLE "Worksong" PERFORMER "Baby Face Willette" INDEX 00 05:21:13FILE "07 - Worksong.wav" WAVE INDEX 01 00:00:00 TRACK 08 AUDIO TITLE "They Can't Take That Away From Me" PERFORMER "Baby Face Willette" INDEX 00 04:50:39FILE "08 - They Can't Take That Away From Me.wav" WAVE INDEX 01 00:00:00


Трекер:  [ 28-Янв-2012 07:43 ]

  

Скачать .torrent

Размер .torrent файла 20 KB


Размер: 245 MB
Хэш (hash) релиза: 3d26c77889d4aa1fe13199584f1a3d8e43f63eda

Еще никто не оставлял запись к записи скачать торрент Baby Face Willette - Stop and Listen . Будь первым!

!Обратная связь