Скачать через торрент музыку Art Blakey & The Jazz Messengers — The Freedom Rider бесплатно без регистрации torrent

Если у вас наблюдаются проблемы со скриншотами, переходом по ссылками, скачиванием торрентов - проблемы в блокировщике рекламы AdBlock. #хорошегоДня!


Статистика раздачи
Размер:  202 MB   |    Зарегистрирован:  5 лет 8 месяцев   |    .torrent скачан:  36 раз   |   
Раздают:  1  
   
Загрузка...
 
Автор Сообщение

Umakiro

avatar Umakiro


Art Blakey & The Jazz Messengers — The Freedom Rider (1961) {RVG Edition}

Жанр: Hard Bop
Год выпуска диска: 2000
Label: Blue Note (Japan 24bit RVG Remaster)
Аудио кодек: FLAC
Тип рипа: tracks+.cue
Битрейт аудио: lossless
Продолжительность: 33:56

Треклист:
01. Tell It Like It Is (7:55)
02. The Freedom Rider (7:27)
03. El Toro (6:21)
04. Petty Larceny (6:15)
05. Blue Lace (5:59)

   Автор рипа ruskaval
 
   
 
Exact Audio Copy V0.99 prebeta 5 from 4. May 2009

EAC extraction logfile from 6. December 2009, 20:21

Art Blakey & The Jazz Messengers / The Freedom Rider

Used drive : TSSTcorpCD/DVDW TS-H552L Adapter: 3 ID: 0

Read mode : SecureUtilize accurate stream : YesDefeat audio cache : YesMake use of C2 pointers : No

Read offset correction : 6Overread into Lead-In and Lead-Out : NoFill up missing offset samples with silence : YesDelete leading and trailing silent blocks : NoNull samples used in CRC calculations : YesUsed interface : Native Win32 interface for Win NT & 2000Gap handling : Appended to previous track

Used output format : User Defined EncoderSelected bitrate : 1024 kBit/sQuality : HighAdd ID3 tag : NoCommand line compressor : C:\Program Files\FLAC\flac.exeAdditional command line options : -6 -V -T "ARTIST=%a" -T "TITLE=%t" -T "ALBUM=%g" -T "DATE=%y" -T "TRACKNUMBER=%n" -T "GENRE=%m" -T "COMMENT=EAC FLAC -6" %s

TOC of the extracted CD

Track | Start | Length | Start sector | End sector --------------------------------------------------------- 1 | 0:00.00 | 7:55.18 | 0 | 35642 2 | 7:55.18 | 7:26.60 | 35643 | 69152 3 | 15:22.03 | 6:20.64 | 69153 | 97716 4 | 21:42.67 | 6:14.40 | 97717 | 125806 5 | 27:57.32 | 5:58.45 | 125807 | 152701

Track 1

Filename C:\Art Blakey & The Jazz Messengers - The Freedom Rider (1961) {2000 Japan 24bit RVG Remaster}\01 - Tell It Like It Is.wav

Pre-gap length 0:00:02.00

Peak level 97.9 % Track quality 100.0 % Test CRC 07B8E373 Copy CRC 07B8E373 Accurately ripped (confidence 1) [9D53C1E6] Copy OK

Track 2

Filename C:\Art Blakey & The Jazz Messengers - The Freedom Rider (1961) {2000 Japan 24bit RVG Remaster}\02 - The Freedom Rider.wav

Pre-gap length 0:00:03.14

Peak level 97.9 % Track quality 100.0 % Test CRC E891DB5A Copy CRC E891DB5A Accurately ripped (confidence 1) [9C55DFC0] Copy OK

Track 3

Filename C:\Art Blakey & The Jazz Messengers - The Freedom Rider (1961) {2000 Japan 24bit RVG Remaster}\03 - El Toro.wav

Pre-gap length 0:00:03.24

Peak level 97.9 % Track quality 99.9 % Test CRC 7D26E72D Copy CRC 7D26E72D Accurately ripped (confidence 1) [944AAA49] Copy OK

Track 4

Filename C:\Art Blakey & The Jazz Messengers - The Freedom Rider (1961) {2000 Japan 24bit RVG Remaster}\04 - Petty Larceny.wav

Pre-gap length 0:00:02.26

Peak level 97.9 % Track quality 100.0 % Test CRC F8995B95 Copy CRC F8995B95 Accurately ripped (confidence 1) [EB02A31D] Copy OK

Track 5

Filename C:\Art Blakey & The Jazz Messengers - The Freedom Rider (1961) {2000 Japan 24bit RVG Remaster}\05 - Blue Lace.wav

Pre-gap length 0:00:02.36

Peak level 97.9 % Track quality 100.0 % Test CRC 8830421E Copy CRC 8830421E Accurately ripped (confidence 1) [23EFD3AC] Copy OK

All tracks accurately ripped

No errors occurred

End of status report
  

Трекер:  [ 28-Янв-2012 07:42 ]

  

Скачать .torrent

Размер .torrent файла 5 KB


Размер: 202 MB
Хэш (hash) релиза: eee6429829c392bfd827fc52e3e3fa9492ccd88a

Еще никто не оставлял запись к записи скачать торрент Art Blakey & The Jazz Messengers — The Freedom Rider . Будь первым!

!Обратная связь