Скачать через торрент музыку Art Blakey & The Jazz Messengers — Indestructible бесплатно без регистрации torrent

Если у вас наблюдаются проблемы со скриншотами, переходом по ссылками, скачиванием торрентов - проблемы в блокировщике рекламы AdBlock. #хорошегоДня!


Статистика раздачи
Размер:  317 MB   |    Зарегистрирован:  5 лет 8 месяцев   |    .torrent скачан:  40 раз   |   
Раздают:  1  
   
Загрузка...
 
Автор Сообщение

Umakiro

avatar Umakiro


Art Blakey & The Jazz Messengers — Indestructible (1964)

Жанр: Hard Bop
Год издания диска: 2003
Издатель (лейбл): Blue Note
Номер по каталогу: 80915
Аудиокодек: FLAC (*.flac)
Тип рипа: tracks+.cue
Битрейт аудио: lossless
Продолжительность: 44:33
Риппер: ruskaval
Наличие сканов в содержимом раздачи: да

Треклист:
01. The Egyptian (10:25)
02. Sortie (8:13)
03. Calling Miss Khadija (7:22)
04. When Love Is New (6:02)
05. Mr. Jin (7:05)
06. It's A Long Way Down (bonus track) (5:27)

Personnel:
Lee Morgan - tp
Curtis Fuller - tb
Wayne Shorter - ts
Cedar Walton - p
Reggie Workman - b
Art Blakey - d

Rec.: Van Gelder Studio, Englewood Cliffs, NJ, April 15 & 20, and May 15, 1964.
 
 
Exact Audio Copy V0.99 prebeta 5 from 4. May 2009

EAC extraction logfile from 25. September 2010, 17:06

Art Blakey & The Jazz Messengers / Indestructible

Used drive : TSSTcorpCD/DVDW TS-H552L Adapter: 3 ID: 0

Read mode : SecureUtilize accurate stream : YesDefeat audio cache : YesMake use of C2 pointers : No

Read offset correction : 6Overread into Lead-In and Lead-Out : NoFill up missing offset samples with silence : YesDelete leading and trailing silent blocks : NoNull samples used in CRC calculations : YesUsed interface : Native Win32 interface for Win NT & 2000Gap handling : Appended to previous track

Used output format : User Defined EncoderSelected bitrate : 1024 kBit/sQuality : HighAdd ID3 tag : NoCommand line compressor : C:\Program Files\FLAC\flac.exeAdditional command line options : -6 -V -T "ARTIST=%a" -T "TITLE=%t" -T "ALBUM=%g" -T "DATE=%y" -T "TRACKNUMBER=%n" -T "GENRE=%m" -T "COMMENT=EAC FLAC -6" %s

TOC of the extracted CD

Track | Start | Length | Start sector | End sector --------------------------------------------------------- 1 | 0:00.00 | 10:25.25 | 0 | 46899 2 | 10:25.25 | 8:13.22 | 46900 | 83896 3 | 18:38.47 | 7:21.41 | 83897 | 117012 4 | 26:00.13 | 6:02.35 | 117013 | 144197 5 | 32:02.48 | 7:04.55 | 144198 | 176052 6 | 39:07.28 | 5:26.72 | 176053 | 200574

Track 1

Filename C:\Art Blakey & The Jazz Messengers - Indestructible (1964) (ft. Lee Morgan) {2003 BN RVG Edition}\01 - The Egyptian.wav

Pre-gap length 0:00:02.00

Peak level 97.9 % Track quality 100.0 % Test CRC 9C2AD144 Copy CRC 9C2AD144 Accurately ripped (confidence 15) [16CF706F] Copy OK

Track 2

Filename C:\Art Blakey & The Jazz Messengers - Indestructible (1964) (ft. Lee Morgan) {2003 BN RVG Edition}\02 - Sortie.wav

Pre-gap length 0:00:01.03

Peak level 97.9 % Track quality 100.0 % Test CRC 8342DE26 Copy CRC 8342DE26 Accurately ripped (confidence 15) [46E7B5B2] Copy OK

Track 3

Filename C:\Art Blakey & The Jazz Messengers - Indestructible (1964) (ft. Lee Morgan) {2003 BN RVG Edition}\03 - Calling Miss Khadija.wav

Pre-gap length 0:00:01.38

Peak level 97.9 % Track quality 100.0 % Test CRC E19FCD07 Copy CRC E19FCD07 Accurately ripped (confidence 14) [EF2836C0] Copy OK

Track 4

Filename C:\Art Blakey & The Jazz Messengers - Indestructible (1964) (ft. Lee Morgan) {2003 BN RVG Edition}\04 - When Love Is New.wav

Pre-gap length 0:00:01.32

Peak level 93.1 % Track quality 100.0 % Test CRC A3989694 Copy CRC A3989694 Accurately ripped (confidence 14) [84251230] Copy OK

Track 5

Filename C:\Art Blakey & The Jazz Messengers - Indestructible (1964) (ft. Lee Morgan) {2003 BN RVG Edition}\05 - Mr. Jin.wav

Pre-gap length 0:00:02.12

Peak level 97.9 % Track quality 99.9 % Test CRC D9DFCCF3 Copy CRC D9DFCCF3 Accurately ripped (confidence 14) [797228AE] Copy OK

Track 6

Filename C:\Art Blakey & The Jazz Messengers - Indestructible (1964) (ft. Lee Morgan) {2003 BN RVG Edition}\06 - It's A Long Way Down (bonus track).wav

Pre-gap length 0:00:00.41

Peak level 97.9 % Track quality 100.0 % Test CRC 1C6DEB24 Copy CRC 1C6DEB24 Accurately ripped (confidence 14) [BBB21B81] Copy OK

All tracks accurately ripped

No errors occurred

End of status report
 
REM GENRE JazzREM DATE 1964REM DISCID 450A7206REM COMMENT "ExactAudioCopy v0.99pb5"PERFORMER "Art Blakey & The Jazz Messengers"TITLE "Indestructible"FILE "01 - The Egyptian.wav" WAVE TRACK 01 AUDIO TITLE "The Egyptian" PERFORMER "Art Blakey & The Jazz Messengers" INDEX 01 00:00:00 TRACK 02 AUDIO TITLE "Sortie" PERFORMER "Art Blakey & The Jazz Messengers" INDEX 00 10:24:22FILE "02 - Sortie.wav" WAVE INDEX 01 00:00:00 TRACK 03 AUDIO TITLE "Calling Miss Khadija" PERFORMER "Art Blakey & The Jazz Messengers" INDEX 00 08:11:59FILE "03 - Calling Miss Khadija.wav" WAVE INDEX 01 00:00:00 TRACK 04 AUDIO TITLE "When Love Is New" PERFORMER "Art Blakey & The Jazz Messengers" INDEX 00 07:20:09FILE "04 - When Love Is New.wav" WAVE INDEX 01 00:00:00 TRACK 05 AUDIO TITLE "Mr. Jin" PERFORMER "Art Blakey & The Jazz Messengers" INDEX 00 06:00:23FILE "05 - Mr. Jin.wav" WAVE INDEX 01 00:00:00 TRACK 06 AUDIO TITLE "It's A Long Way Down (bonus track)" PERFORMER "Art Blakey & The Jazz Messengers" INDEX 00 07:04:14FILE "06 - It's A Long Way Down (bonus track).wav" WAVE INDEX 01 00:00:00


Трекер:  [ 28-Янв-2012 07:41 ]

  

Скачать .torrent

Размер .torrent файла 14 KB


Размер: 317 MB
Хэш (hash) релиза: d835765eed3d0cf9d2ee7b7ca4472c83300d04d4

Еще никто не оставлял запись к записи скачать торрент Art Blakey & The Jazz Messengers — Indestructible . Будь первым!

!Обратная связь