Скачать через торрент музыку Art Blakey & The Jazz Messengers — At The Cafe Bohemia бесплатно без регистрации torrent

Если у вас наблюдаются проблемы со скриншотами, переходом по ссылками, скачиванием торрентов - проблемы в блокировщике рекламы AdBlock. #хорошегоДня!


Статистика раздачи
Размер:  700 MB   |    Зарегистрирован:  5 лет 8 месяцев   |    .torrent скачан:  30 раз   |   
Раздают:  1  
   
Загрузка...
 
Автор Сообщение

Umakiro

avatar Umakiro


Art Blakey & The Jazz Messengers — At The Café Bohemia (2 CD)

Жанр: Hard Bop
Год издания диска: 2001
Издатель (лейбл): Blue Note
Номер по каталогу: 32148 / 32149
Аудиокодек: FLAC (*.flac)
Тип рипа: tracks+.cue
Битрейт аудио: lossless
Продолжительность: 64:52 / 65:17
Источник: вата
Наличие сканов в содержимом раздачи: да

Volume 1
01. Announcement by Art Blakey (1:32)
02. Soft Winds (12:34)
03. The Theme (6:12)
04. Minor's Holiday (9:11)
05. Alone Together (4:15)
06. Prince Albert (8:51)
07. Lady Bird (7:30)
08. What's New (4:31)
09. Deciphering The Message (10:14)

Volume 2
01. Announcement by Art Blakey (0:38)
02. Sportin' Crowd (6:53)
03. Like Someone In Love (9:16)
04. Yesterdays (4:18)
05. Avila & Tequila (12:46)
06. I Waited For You (9:47)
07. Just One Of Those Things (9:28)
08. Hank's Symphony (4:43)
09. Gone With The Wind (7:27)

Personnel:
Kenny Dorham - tp
Hank Mobley - ts
Horace Silver - p
Doug Watkins - b
Art Blakey - d

Rec.: at the Café Bohemia, New York City, NY, November 23, 1955.

  
 
EAC extraction logfile from 10. October 2007, 18:03 for CDArt Blakey & The Jazz Messengers / At the Cafй Bohemia (Vol 1)

Used drive : TSSTcorpCD/DVDW SH-S162L Adapter: 1 ID: 0Read mode : Secure with NO C2, accurate stream, disable cacheRead offset correction : 6Overread into Lead-In and Lead-Out : No

Used output format : C:\Program Files\Exact Audio Copy\flac-1.1.4-win\bin\flac.exe (User Defined Encoder) 192 kBit/s Additional command line options : -8 -A tukey(0.25) -A gauss(0.1875) -b 4096 -V -T "artist=%a" -T "title=%t" -T "album=%g" -T "date=%y" -T "tracknumber=%n" -T "genre=%m" %s --sector-align

Other options : Fill up missing offset samples with silence : Yes Delete leading and trailing silent blocks : No Installed external ASPI interface

Track 1 Filename C:\Documents and Settings\Administrator\Desktop\EAC temp\01 - Announcement by Art Blakey.wav

Pre-gap length 0:00:02.00

Peak level 97.9 % Track quality 100.0 % Test CRC 2581135D Copy CRC 2581135D Copy OK

Track 2 Filename C:\Documents and Settings\Administrator\Desktop\EAC temp\02 - Soft Winds.wav

Peak level 97.9 % Track quality 100.0 % Test CRC 498A0CEF Copy CRC 498A0CEF Copy OK

Track 3 Filename C:\Documents and Settings\Administrator\Desktop\EAC temp\03 - The Theme.wav

Peak level 97.9 % Track quality 100.0 % Test CRC 130C7BBD Copy CRC 130C7BBD Copy OK

Track 4 Filename C:\Documents and Settings\Administrator\Desktop\EAC temp\04 - Minor's Holiday.wav

Pre-gap length 0:00:02.46

Peak level 97.9 % Track quality 100.0 % Test CRC 205F7EF5 Copy CRC 205F7EF5 Copy OK

Track 5 Filename C:\Documents and Settings\Administrator\Desktop\EAC temp\05 - Alone Together.wav

Peak level 95.8 % Track quality 100.0 % Test CRC 5FCEB0C1 Copy CRC 5FCEB0C1 Copy OK

Track 6 Filename C:\Documents and Settings\Administrator\Desktop\EAC temp\06 - Prince Albert.wav

Peak level 97.9 % Track quality 100.0 % Test CRC A66FEFB6 Copy CRC A66FEFB6 Copy OK

Track 7 Filename C:\Documents and Settings\Administrator\Desktop\EAC temp\07 - Lady Bird.wav

Peak level 97.9 % Track quality 100.0 % Test CRC 918E5A07 Copy CRC 918E5A07 Copy OK

Track 8 Filename C:\Documents and Settings\Administrator\Desktop\EAC temp\08 - What's New.wav

Peak level 97.7 % Track quality 99.9 % Test CRC 01E75294 Copy CRC 01E75294 Copy OK

Track 9 Filename C:\Documents and Settings\Administrator\Desktop\EAC temp\09 - Deciphering the Message.wav

Peak level 97.9 % Track quality 100.0 % Test CRC 42189430 Copy CRC 42189430 Copy OK

No errors occured

End of status report
 
REM GENRE JazzREM DATE 1955REM DISCID 760F3309REM COMMENT "ExactAudioCopy v0.95b4"PERFORMER "Art Blakey & The Jazz Messengers"TITLE "At The Cafe Bohemia (Volume 1)"FILE "01 - Announcement by Art Blakey.flac" WAVE TRACK 01 AUDIO TITLE "Announcement by Art Blakey" PERFORMER "Art Blakey & The Jazz Messengers" INDEX 01 00:00:00FILE "02 - Soft Winds.flac" WAVE TRACK 02 AUDIO TITLE "Soft Winds" PERFORMER "Art Blakey & The Jazz Messengers" INDEX 01 00:00:00FILE "03 - The Theme.flac" WAVE TRACK 03 AUDIO TITLE "The Theme" PERFORMER "Art Blakey & The Jazz Messengers" INDEX 01 00:00:00 TRACK 04 AUDIO TITLE "Minor's Holiday" PERFORMER "Art Blakey & The Jazz Messengers" INDEX 00 06:09:21FILE "04 - Minor's Holiday.flac" WAVE INDEX 01 00:00:00FILE "05 - Alone Together.flac" WAVE TRACK 05 AUDIO TITLE "Alone Together" PERFORMER "Art Blakey & The Jazz Messengers" INDEX 01 00:00:00FILE "06 - Prince Albert.flac" WAVE TRACK 06 AUDIO TITLE "Prince Albert" PERFORMER "Art Blakey & The Jazz Messengers" INDEX 01 00:00:00FILE "07 - Lady Bird.flac" WAVE TRACK 07 AUDIO TITLE "Lady Bird" PERFORMER "Art Blakey & The Jazz Messengers" INDEX 01 00:00:00FILE "08 - What's New.flac" WAVE TRACK 08 AUDIO TITLE "What's New" PERFORMER "Art Blakey & The Jazz Messengers" INDEX 01 00:00:00FILE "09 - Deciphering The Message.flac" WAVE TRACK 09 AUDIO TITLE "Deciphering The Message" PERFORMER "Art Blakey & The Jazz Messengers" INDEX 01 00:00:00
 
[CUETools log; Date: 10.11.2011 1:35:40; Version: 2.0.9][CTDB TOCID: YktQSeqQt02kFkmpGTLY4u07Ajc-] found. [ CTDBID ] Status [7acb6d8b] (44/44) Accurately ripped[AccurateRip ID: 001561b9-009f0584-760f3309] found.Track [ CRC ] Status 01 [0ac11009] (34/44) Accurately ripped 02 [f01501b4] (35/45) Accurately ripped 03 [886f8b29] (34/44) Accurately ripped 04 [5d6e5ae0] (34/44) Accurately ripped 05 [ded0174f] (36/46) Accurately ripped 06 [be66a15f] (34/44) Accurately ripped 07 [77370ef4] (36/46) Accurately ripped 08 [ac3f0ebc] (34/44) Accurately ripped 09 [7b777796] (35/45) Accurately rippedOffsetted by -676: 01 [7a91519c] (08/44) Accurately ripped 02 [3c7e4c72] (08/45) Accurately ripped 03 [b4d59cd0] (08/44) Accurately ripped 04 [9f75db23] (08/44) Accurately ripped 05 [3038bf79] (08/46) Accurately ripped 06 [06cd70fe] (08/44) Accurately ripped 07 [ff18724e] (08/46) Accurately ripped 08 [5e0d18fc] (08/44) Accurately ripped 09 [1f62659c] (08/45) Accurately ripped

Track Peak [ CRC32 ] [W/O NULL] [ LOG ] -- 97,9 [B779D8B2] [83CF482F] 01 97,9 [2581135D] [2EAB1FB8] CRC32 02 97,9 [498A0CEF] [90194B6C] CRC32 03 97,9 [130C7BBD] [216C293D] CRC32 04 97,9 [205F7EF5] [EEC06E46] CRC32 05 95,8 [5FCEB0C1] [FE682FF4] CRC32 06 97,9 [A66FEFB6] [012D9CAA] CRC32 07 97,9 [918E5A07] [DE493AA6] CRC32 08 97,7 [01E75294] [FC02BBF5] CRC32 09 97,9 [42189430] [ADB26062] CRC32
 
EAC extraction logfile from 10. October 2007, 18:26 for CDArt Blakey And The Jazz Messengers / At The Cafe Bohemia Volume Two

Used drive : TSSTcorpCD/DVDW SH-S162L Adapter: 1 ID: 0Read mode : Secure with NO C2, accurate stream, disable cacheRead offset correction : 6Overread into Lead-In and Lead-Out : No

Used output format : C:\Program Files\Exact Audio Copy\flac-1.1.4-win\bin\flac.exe (User Defined Encoder) 192 kBit/s Additional command line options : -8 -A tukey(0.25) -A gauss(0.1875) -b 4096 -V -T "artist=%a" -T "title=%t" -T "album=%g" -T "date=%y" -T "tracknumber=%n" -T "genre=%m" %s --sector-align

Other options : Fill up missing offset samples with silence : Yes Delete leading and trailing silent blocks : No Installed external ASPI interface

Track 1 Filename C:\Documents and Settings\Administrator\Desktop\EAC temp\01 - Announcement By Art Blakey.wav

Pre-gap length 0:00:02.00

Peak level 96.6 % Track quality 100.0 % Test CRC B67C7357 Copy CRC B67C7357 Copy OK

Track 2 Filename C:\Documents and Settings\Administrator\Desktop\EAC temp\02 - Sportin' Crowd.wav

Peak level 97.9 % Track quality 100.0 % Test CRC 7958A6A4 Copy CRC 7958A6A4 Copy OK

Track 3 Filename C:\Documents and Settings\Administrator\Desktop\EAC temp\03 - Like Someone In Love.wav

Peak level 97.9 % Track quality 100.0 % Test CRC C6D0E7F1 Copy CRC C6D0E7F1 Copy OK

Track 4 Filename C:\Documents and Settings\Administrator\Desktop\EAC temp\04 - Yesterdays.wav

Peak level 97.9 % Track quality 99.9 % Test CRC 8654DA1A Copy CRC 8654DA1A Copy OK

Track 5 Filename C:\Documents and Settings\Administrator\Desktop\EAC temp\05 - Avila & Tequila.wav

Peak level 97.9 % Track quality 100.0 % Test CRC 8D81D0E3 Copy CRC 8D81D0E3 Copy OK

Track 6 Filename C:\Documents and Settings\Administrator\Desktop\EAC temp\06 - I Waited For You.wav

Peak level 97.9 % Track quality 100.0 % Test CRC A4F6C1E3 Copy CRC A4F6C1E3 Copy OK

Track 7 Filename C:\Documents and Settings\Administrator\Desktop\EAC temp\07 - Just One Of Those Things.wav

Peak level 97.9 % Track quality 100.0 % Test CRC C21D0E91 Copy CRC C21D0E91 Copy OK

Track 8 Filename C:\Documents and Settings\Administrator\Desktop\EAC temp\08 - Hank's Symphony.wav

Peak level 97.9 % Track quality 100.0 % Test CRC F3FB3B2A Copy CRC F3FB3B2A Copy OK

Track 9 Filename C:\Documents and Settings\Administrator\Desktop\EAC temp\09 - Gone With The Wind.wav

Peak level 97.9 % Track quality 100.0 % Test CRC C6CF87F0 Copy CRC C6CF87F0 Copy OK

No errors occured

End of status report
 
REM GENRE JazzREM DATE 1955REM DISCID 680F4C09REM COMMENT "ExactAudioCopy v0.95b4"PERFORMER "Art Blakey & The Jazz Messengers"TITLE "At The Cafe Bohemia (Volume 2)"FILE "01 - Announcement by Art Blakey.flac" WAVE TRACK 01 AUDIO TITLE "Announcement by Art Blakey" PERFORMER "Art Blakey & The Jazz Messengers" INDEX 01 00:00:00FILE "02 - Sportin' Crowd.flac" WAVE TRACK 02 AUDIO TITLE "Sportin' Crowd" PERFORMER "Art Blakey & The Jazz Messengers" INDEX 01 00:00:00FILE "03 - Like Someone In Love.flac" WAVE TRACK 03 AUDIO TITLE "Like Someone In Love" PERFORMER "Art Blakey & The Jazz Messengers" INDEX 01 00:00:00FILE "04 - Yesterdays.flac" WAVE TRACK 04 AUDIO TITLE "Yesterdays" PERFORMER "Art Blakey & The Jazz Messengers" INDEX 01 00:00:00FILE "05 - Avila & Tequila.flac" WAVE TRACK 05 AUDIO TITLE "Avila & Tequila" PERFORMER "Art Blakey & The Jazz Messengers" INDEX 01 00:00:00FILE "06 - I Waited For You.flac" WAVE TRACK 06 AUDIO TITLE "I Waited For You" PERFORMER "Art Blakey & The Jazz Messengers" INDEX 01 00:00:00FILE "07 - Just One Of Those Things.flac" WAVE TRACK 07 AUDIO TITLE "Just One Of Those Things" PERFORMER "Art Blakey & The Jazz Messengers" INDEX 01 00:00:00FILE "08 - Hank's Symphony.flac" WAVE TRACK 08 AUDIO TITLE "Hank's Symphony" PERFORMER "Art Blakey & The Jazz Messengers" INDEX 01 00:00:00FILE "09 - Gone With The Wind.flac" WAVE TRACK 09 AUDIO TITLE "Gone With The Wind" PERFORMER "Art Blakey & The Jazz Messengers" INDEX 01 00:00:00
 
[CUETools log; Date: 10.11.2011 1:43:25; Version: 2.0.9][CTDB TOCID: fmyuS82Eczhs5G.bImPb946BdmM-] found. [ CTDBID ] Status [2c6618d6] (27/27) Accurately ripped[AccurateRip ID: 001494d3-009e2579-680f4c09] found.Track [ CRC ] Status 01 [253fa487] (24/30) Accurately ripped 02 [3dade6c6] (24/31) Accurately ripped 03 [d9f928a1] (23/30) Accurately ripped 04 [ed8ac939] (23/30) Accurately ripped 05 [56dc063b] (23/30) Accurately ripped 06 [ec4ea01e] (21/28) Accurately ripped 07 [cd802420] (21/28) Accurately ripped 08 [44ca0b1f] (22/29) Accurately ripped 09 [f1385c29] (23/30) Accurately rippedOffsetted by -24: 01 [54bf1e2f] (06/30) Accurately ripped 02 [bba10963] (07/31) Accurately ripped 03 [7aa69581] (07/30) Accurately ripped 04 [b6c64381] (07/30) Accurately ripped 05 [b7373015] (07/30) Accurately ripped 06 [47c8863b] (07/28) Accurately ripped 07 [c8b0584b] (07/28) Accurately ripped 08 [c9d9c71f] (07/29) Accurately ripped 09 [17af990e] (07/30) Accurately ripped

Track Peak [ CRC32 ] [W/O NULL] [ LOG ] -- 97,9 [F7347B4F] [94F19E17] 01 96,6 [B67C7357] [26FFA3D5] CRC32 02 97,9 [7958A6A4] [5C4BDE87] CRC32 03 97,9 [C6D0E7F1] [0AA0E2D7] CRC32 04 97,9 [8654DA1A] [61E9E74A] CRC32 05 97,9 [8D81D0E3] [C1162C26] CRC32 06 97,9 [A4F6C1E3] [8EC217D8] CRC32 07 97,9 [C21D0E91] [02FC6262] CRC32 08 97,9 [F3FB3B2A] [BE4A8432] CRC32 09 97,9 [C6CF87F0] [2EF8C5EC] CRC32


Трекер:  [ 28-Янв-2012 07:40 ]

  

Скачать .torrent

Размер .torrent файла 17 KB


Размер: 700 MB
Хэш (hash) релиза: fa4fd605f273cd41769f9512024ed22b28347129

Еще никто не оставлял запись к записи скачать торрент Art Blakey & The Jazz Messengers — At The Cafe Bohemia . Будь первым!

!Обратная связь