Скачать через торрент музыку Art Blakey & The Jazz Messengers - Mosaic {RVG Edition} - 1960, FLAC бесплатно без регистрации torrent

Если у вас наблюдаются проблемы со скриншотами, переходом по ссылками, скачиванием торрентов - проблемы в блокировщике рекламы AdBlock. #хорошегоДня!


Статистика раздачи
Размер:  314 MB   |    Зарегистрирован:  5 лет 8 месяцев   |    .torrent скачан:  36 раз   |   
Раздают:  1  
   
Загрузка...
 
Автор Сообщение

Umakiro

avatar Umakiro


Art Blakey & The Jazz Messengers - Mosaic {RVG Edition}

Жанр: Hard Bop
Год выпуска диска: 1960
Производитель диска: UK
Аудио кодек: FLAC
Тип рипа: image+.cue
Битрейт аудио: lossless
Продолжительность: 40:18
Лейбл: Blue Note
Источник: NoNaMe/mishka1981

Трэклист:
1. Mosaic
2. Down Under
3. Children Of The Night
4. Arabia
5. Crisis

Музыканты:
Freddie Hubbard, trumpet
Curtis Fuller, trombone
Wayne Shorter, tenor sax
Cedar Walton, piano
Jymie Merritt, bass
Art Blakey, drums

Originally recorded on October 2, 1960 at the Van Gelder Studio, Englewood Cliffs, New Jersey
Remastered in 2005 by Rudy Van Gelder
 
Exact Audio Copy V0.99 prebeta 3 from 28. July 2007

EAC extraction logfile from 3. March 2010, 17:06

Art Blakey & the Jazz Messengers / Mosaic

Used drive : HL-DT-STDVD-RAM GSA-H55N Adapter: 0 ID: 0

Read mode : SecureUtilize accurate stream : YesDefeat audio cache : YesMake use of C2 pointers : No

Read offset correction : 102Overread into Lead-In and Lead-Out : NoFill up missing offset samples with silence : YesDelete leading and trailing silent blocks : NoNull samples used in CRC calculations : NoUsed interface : Installed external ASPI interface

Used output format : User Defined EncoderSelected bitrate : 768 kBit/sQuality : HighAdd ID3 tag : NoCommand line compressor : C:\Program Files\Exact Audio Copy\FLAC\FLAC.EXEAdditional command line options : -6 -V -T "ARTIST=%a" -T "TITLE=%t" -T "ALBUM=%g" -T "DATE=%y" -T "TRACKNUMBER=%n" -T "GENRE=%m" -T "COMMENT=%e" %s -o %d

TOC of the extracted CD

Track | Start | Length | Start sector | End sector --------------------------------------------------------- 1 | 0:00.00 | 8:13.19 | 0 | 36993 2 | 8:13.19 | 5:29.27 | 36994 | 61695 3 | 13:42.46 | 8:51.41 | 61696 | 101561 4 | 22:34.12 | 9:10.34 | 101562 | 142845 5 | 31:44.46 | 8:33.48 | 142846 | 181368

Range status and errors

Selected range

Filename C:\Users\Миша\Documents\Art Blakey - Mosaic\Art Blakey & the Jazz Messengers - Mosaic.wav

Peak level 97.9 % Range quality 99.9 % Copy CRC 583A23DB Copy OK

No errors occurred

AccurateRip summary

Track 1 cannot be verified as accurate (confidence 15) [0FDAE0C4], AccurateRip returned [D09855AF]Track 2 cannot be verified as accurate (confidence 15) [3FBBC67C], AccurateRip returned [88351528]Track 3 cannot be verified as accurate (confidence 15) [35304E61], AccurateRip returned [EA75F8A3]Track 4 cannot be verified as accurate (confidence 14) [5B5A5066], AccurateRip returned [842EDCE8]Track 5 cannot be verified as accurate (confidence 15) [72A8508A], AccurateRip returned [CF96A281]

No tracks could be verified as accurateYou may have a different pressing from the one(s) in the database

End of status report


Трекер:  [ 28-Янв-2012 07:39 ]

  

Скачать .torrent

Размер .torrent файла 13 KB


Размер: 314 MB
Хэш (hash) релиза: 5f0482a10b477f0531d5aa5a09f175b01e173266

Еще никто не оставлял запись к записи скачать торрент Art Blakey & The Jazz Messengers - Mosaic {RVG Edition} - 1960, FLAC . Будь первым!

!Обратная связь