Скачать через торрент музыку Art Blakey & the Jazz Messenger - Free For All бесплатно без регистрации torrent

Если у вас наблюдаются проблемы со скриншотами, переходом по ссылками, скачиванием торрентов - проблемы в блокировщике рекламы AdBlock. #хорошегоДня!


Статистика раздачи
Размер:  290 MB   |    Зарегистрирован:  5 лет 8 месяцев   |    .torrent скачан:  29 раз   |   
Раздают:  1  
   
Загрузка...
 
Автор Сообщение

Umakiro

avatar Umakiro


Art Blakey & The Jazz Messenger - Free For All (RVG Edition)

Страна: USA
Жанр: Jazz
Год выпуска: 2004
Формат: FLAC (tracks)
Битрейт аудио: lossless
Продолжительность: 36:48 min

Трэклист:

1. Free for All (Shorter) 11:04
2. Hammer Head (Shorter) 7:47
3. The Core (Hubbard) 9:24
4. Pensativa (Fischer) 8:19

Состав:

Art Blakey (drums)
Freddie Hubbard (trumpet)
Curtis Fuller (trombone)
Wayne Shorter (tenor sax)
Cedar Walton (piano)
Reggie Workman (bass)

Доп. информация: Оригинальный альбом записан под лейблом Blue Note 10 февраля 1964 года Rudi van Gelder. Ремастеринг Rudi van Gelder в 2003 году. Rip не мой, взят из сети, вердикт audiochecker v1.2: все файлы CDDA с вероятностью 99 или 100%
EAC extraction logfile from 23. December 2005, 19:52 for CD
Art Blakey & The Jazz Messangers / Free For All [RVG Edition]

Used drive : PLEXTOR CD-R PX-W4824A Adapter: 1 ID: 0
Read mode : Secure with NO C2, accurate stream, disable cache
Read offset correction : 98
Overread into Lead-In and Lead-Out : Yes

Used output format : D:\Programme\FLAC\flac.exe (User Defined Encoder)
320 kBit/s
Additional command line options : -8 -V -T "artist=%a" -T "title=%t" -T "album=%g" -T "date=%y" -T "tracknumber=%n" -T "genre=%m" -T "comment=Blue Note Records 7243 5 71067 2 6" %s

Other options :
Fill up missing offset samples with silence : Yes
Delete leading and trailing silent blocks : No
Installed external ASPI interface

Track 1
Filename E:\Art Blakey & the Jazz Messenger - Free For All (2004) [FLAC] (RVG)\01 - Free For All.wav

Pre-gap length 0:00:02.00

Peak level 97.9 %
Track quality 99.9 %
Test CRC 74A817AE
Copy CRC 74A817AE
Copy OK

Track 2
Filename E:\Art Blakey & the Jazz Messenger - Free For All (2004) [FLAC] (RVG)\02 - Hammer Head.wav

Pre-gap length 0:00:02.52

Peak level 97.9 %
Track quality 99.9 %
Test CRC C1569E4A
Copy CRC C1569E4A
Copy OK

Track 3
Filename E:\Art Blakey & the Jazz Messenger - Free For All (2004) [FLAC] (RVG)\03 - The Core.wav

Pre-gap length 0:00:02.89

Peak level 97.9 %
Track quality 100.0 %
Test CRC 21746D6D
Copy CRC 21746D6D
Copy OK

Track 4
Filename E:\Art Blakey & the Jazz Messenger - Free For All (2004) [FLAC] (RVG)\04 - Pensativa.wav

Pre-gap length 0:00:01.93

Peak level 97.9 %
Track quality 100.0 %
Test CRC CD94CDFE
Copy CRC CD94CDFE
Copy OK

No errors occured

End of status report


Трекер:  [ 28-Янв-2012 07:38 ]

  

Скачать .torrent

Размер .torrent файла 13 KB


Размер: 290 MB
Хэш (hash) релиза: 2fbc034c95427cbb7714f3ec9dae7b34d83432c0

Еще никто не оставлял запись к записи скачать торрент Art Blakey & the Jazz Messenger - Free For All . Будь первым!

!Обратная связь