Скачать через торрент музыку Art Blakey - Buhainas Delight - 1961 бесплатно без регистрации torrent

Если у вас наблюдаются проблемы со скриншотами, переходом по ссылками, скачиванием торрентов - проблемы в блокировщике рекламы AdBlock. #хорошегоДня!


Статистика раздачи
Размер:  455 MB   |    Зарегистрирован:  5 лет 8 месяцев   |    .torrent скачан:  35 раз   |   
Раздают:  1  
   
Загрузка...
 
Автор Сообщение

Umakiro

avatar Umakiro


Art Blakey - Buhaina's Delight
Жанр: Hard-Bop
Год выпуска диска: 1961 [2003]
Производитель диска: Blue Note (TOCJ-9557)
Аудио кодек: WAVPack
Тип рипа: image+.cue
Битрейт аудио: lossless
Продолжительность: 1:03:18
Трэклист:
01. Backstage Sally (5:58)
02. Contemplation (6:16)
03. Bu's Delight (9:22)
04. Reincarnation Blues (6:35)
05. Shaky Jake (6:38)
06. Moon River (5:11)
07. Backstage Sally (alternate version) (6:04)
08. Bu's Delight (alternate version) (6:57)
09. Reincarnation Blues (alternate version) (5:03)
10. Moon River (alternate take) (5:14)

Art Blakey - drums
Wayne Shorter - tenor saxophone
Freddie Hubbard - trumpet
Curtis Fuller - trombone
Cedar Walton - piano
Jymie Merritt - bass

За рип спасибо ffsf
 
Exact Audio Copy V0.99 prebeta 5 from 4. May 2009

EAC extraction logfile from 11. December 2009, 21:45

Art Blakey / Buhaina's Delight

Used drive : MATSHITADVD-ROM SR-8588 Adapter: 1 ID: 1

Read mode : SecureUtilize accurate stream : YesDefeat audio cache : YesMake use of C2 pointers : No

Read offset correction : 103Overread into Lead-In and Lead-Out : NoFill up missing offset samples with silence : YesDelete leading and trailing silent blocks : NoNull samples used in CRC calculations : YesUsed interface : Installed external ASPI interface

Used output format : Internal WAV RoutinesSample format : 44.100 Hz; 16 Bit; Stereo

TOC of the extracted CD

Track | Start | Length | Start sector | End sector --------------------------------------------------------- 1 | 0:00.00 | 5:58.33 | 0 | 26882 2 | 5:58.33 | 6:16.30 | 26883 | 55112 3 | 12:14.63 | 9:21.50 | 55113 | 97237 4 | 21:36.38 | 6:35.04 | 97238 | 126866 5 | 28:11.42 | 6:38.17 | 126867 | 156733 6 | 34:49.59 | 5:11.11 | 156734 | 180069 7 | 40:00.70 | 6:04.00 | 180070 | 207369 8 | 46:04.70 | 6:56.53 | 207370 | 238622 9 | 53:01.48 | 5:02.73 | 238623 | 261345 10 | 58:04.46 | 5:13.49 | 261346 | 284869

Range status and errors

Selected range

Filename C:\EAC\Art Blakey - Buhaina's Delight.wav

Peak level 97.9 % Range quality 100.0 % Test CRC D466CB0E Copy CRC D466CB0E Copy OK

No errors occurred

AccurateRip summary

Track 1 cannot be verified as accurate (confidence 10) [1984A3B2], AccurateRip returned [3CA065FB]Track 2 cannot be verified as accurate (confidence 9) [CC545226], AccurateRip returned [0F61FBB0]Track 3 cannot be verified as accurate (confidence 10) [CBB3FB74], AccurateRip returned [84E1DB9C]Track 4 cannot be verified as accurate (confidence 10) [E9489BEA], AccurateRip returned [274F37DC]Track 5 cannot be verified as accurate (confidence 10) [452FDF80], AccurateRip returned [883B7295]Track 6 cannot be verified as accurate (confidence 10) [88CF5928], AccurateRip returned [B88A6A0E]Track 7 cannot be verified as accurate (confidence 10) [730A1055], AccurateRip returned [BD8A8976]Track 8 cannot be verified as accurate (confidence 9) [4BD384F0], AccurateRip returned [A997816D]Track 9 cannot be verified as accurate (confidence 9) [4961CC2A], AccurateRip returned [129A759D]Track 10 cannot be verified as accurate (confidence 9) [3CF90C99], AccurateRip returned [476FAA8B]

No tracks could be verified as accurateYou may have a different pressing from the one(s) in the database

End of status report


Трекер:  [ 28-Янв-2012 07:38 ]

  

Скачать .torrent

Размер .torrent файла 18 KB


Размер: 455 MB
Хэш (hash) релиза: 6e1c308c48cc95213630ecb899db31e90c36481e

Еще никто не оставлял запись к записи скачать торрент Art Blakey - Buhainas Delight - 1961 . Будь первым!

!Обратная связь