Скачать через торрент музыку Art Blakey and The Jazz Messengers - Like Someone in Love {RVG Edition} - 1960, APE бесплатно без регистрации torrent

Если у вас наблюдаются проблемы со скриншотами, переходом по ссылками, скачиванием торрентов - проблемы в блокировщике рекламы AdBlock. #хорошегоДня!


Статистика раздачи
Размер:  298 MB   |    Зарегистрирован:  5 лет 8 месяцев   |    .torrent скачан:  33 раза   |   
Раздают:  1  
   
Загрузка...
 
Автор Сообщение

Umakiro

avatar Umakiro


Art Blakey and The Jazz Messengers - Like Someone in Love {RVG Edition}

Жанр: Hard Bop
Год выпуска диска: 1960
Производитель диска: UK
Аудио кодек: APE
Тип рипа: image+.cue
Битрейт аудио: lossless
Продолжительность: 46:57
Лейбл: Blue Note
Источник: собственный рип, full scan 300dpi

Трэклист:
1 Like Someone in Love
2 Johnny's Blues
3 Noise in the Attic
4 Sleeping Dancer Sleep On
5 Giantis
6 Sleeping Dancer Sleep On [alternate take]

Музыканты:
Lee Morgan, trumpet
Wayne Shorter, tenor sax
Bobby Timmons, piano
Jymie Merritt, bass
Art Blakey, drums

Originally recorded on August 7 & 14, 1960 at the Van Gelder Studio, Englewood Cliffs, New Jersey
Remastered in 2004 by Rudy Van Gelder
 
Exact Audio Copy V0.99 prebeta 4 from 23. January 2008

Отчёт EAC об извлечении, выполненном 20. августа 2009, 22:07

Art Blakey & The Jazz Messengers / Like Someone In Love

Дисковод: _NEC NR-7900A Adapter: 3 ID: 0

Режим чтения : ДостоверностьИспользование точного потока : ДаОтключение кэша аудио : ДаИспользование указателей C2 : Нет

Коррекция смещения при чтении : 685Способность читать области Lead-in и Lead-out : НетЗаполнение пропущенных сэмплов тишиной : ДаУдаление блоков с тишиной в начале и конце : НетПри вычислениях CRC использовались нулевые сэмплы : ДаИнтерфейс : Установленный внешний ASPI-интерфейс

Выходной формат : Внутренние WAV-операцииФормат сэмплов : 44.100 Гц; 16 бит; стерео

TOC извлечённого CD

Трек | Старт | Длительность | Начальный сектор | Конечный сектор --------------------------------------------------------------------- 1 | 0:00.00 | 8:04.25 | 0 | 36324 2 | 8:04.25 | 9:12.00 | 36325 | 77724 3 | 17:16.25 | 7:54.32 | 77725 | 113306 4 | 25:10.57 | 8:06.38 | 113307 | 149794 5 | 33:17.20 | 5:35.20 | 149795 | 174939 6 | 38:52.40 | 8:05.28 | 174940 | 211342 7 | 49:29.68 | 24:28.07 | 222743 | 332849

Характеристики диапазона извлечения и сообщения об ошибках

Выбранный диапазон

Имя файла E:\Up-Down\Art Blakey & The Jazz Messengers - Like Someone In Love\Art Blakey & The Jazz Messengers - Like Someone In Love.wav

Пиковый уровень 97.5 % Качество диапазона 99.7 % CRC копии 67029D0E Копирование... OK

Ошибок не произошло

AccurateRip: сводка

Трек 1 точное извлечение (доверие 2) [A4ED3DB6]Трек 2 точное извлечение (доверие 2) [1CD4761D]Трек 3 точное извлечение (доверие 2) [D20A1FBC]Трек 4 точное извлечение (доверие 2) [049AE9B7]Трек 5 точное извлечение (доверие 2) [BEF573E5]Трек 6 точное извлечение (доверие 2) [2886A242]

Все треки извлечены точно

Конец отчёта
 
AUDIOCHECKER v1.2 - by Dester - opdester@freemail.hu~~~~~~~~~~~~~~~~~

1 -===- E:\Up-Down\Art Blakey & The Jazz Messengers - Like Someone In Love\Art Blakey & The Jazz Messengers - Like Someone In Love.ape Extracted successfully Conclusion: This track looks like CDDA with probability 100%


Трекер:  [ 28-Янв-2012 07:37 ]

  

Скачать .torrent

Размер .torrent файла 12 KB


Размер: 298 MB
Хэш (hash) релиза: 22374c8894508c547859c166da81b910cc99bdd3

Еще никто не оставлял запись к записи скачать торрент Art Blakey and The Jazz Messengers - Like Someone in Love {RVG Edition} - 1960, APE . Будь первым!

!Обратная связь