Скачать через торрент музыку Andrew Hill - Black Fire {RVG Edition} - 1963, FLAC бесплатно без регистрации torrent

Если у вас наблюдаются проблемы со скриншотами, переходом по ссылками, скачиванием торрентов - проблемы в блокировщике рекламы AdBlock. #хорошегоДня!


Статистика раздачи
Размер:  359 MB   |    Зарегистрирован:  5 лет 8 месяцев   |    .torrent скачан:  29 раз   |   
Раздают:  1  
   
Загрузка...
 
Автор Сообщение

Umakiro

avatar Umakiro


Andrew Hill - Black Fire {RVG Edition}

Жанр: Jazz, Post-Bop
Год выпуска диска: 1963
Производитель диска: Россия (лицензия)
Аудио кодек: FLAC
Тип рипа: image+.cue
Битрейт аудио: lossless
Продолжительность: 52:04
Лейбл: Blue Note

Трэклист:
1 Pumpkin
2 Subterfuge
3 Black Fire
4 Cantarnos
5 Tired Trade
6 McNeil Island
7 Land of Nod
8 Pumpkin [alternate take]
9 Black Fire [alternate take]

Музыканты:
Joe Henderson, tenor sax
Andrew Hill, piano
Richard Davis, bass
Roy Haynes, drums
Exact Audio Copy V0.99 prebeta 4 from 23. January 2008

Отчёт EAC об извлечении, выполненном 6. февраля 2009, 19:27

Andrew Hill / Black Fire

Дисковод: TSSTcorpCDDVDW SH-S202J Adapter: 3 ID: 0

Режим чтения : Достоверность
Использование точного потока : Да
Отключение кэша аудио : Да
Использование указателей C2 : Нет

Коррекция смещения при чтении : 6
Способность читать области Lead-in и Lead-out : Нет
Заполнение пропущенных сэмплов тишиной : Да
Удаление блоков с тишиной в начале и конце : Нет
При вычислениях CRC использовались нулевые сэмплы : Да
Интерфейс : Установленный внешний ASPI-интерфейс

Выходной формат : Пользовательский кодировщик
Выбранный битрейт : 768 kBit/s
Качество : Высокий
Добавление ID3-тэга : Нет
Утилита сжатия : C:\Program Files\Exact Audio Copy\FLAC\FLAC.EXE
Дополнительные параметры : -6 -V -T "ARTIST=%a" -T "TITLE=%t" -T "ALBUM=%g" -T "DATE=%y" -T "TRACKNUMBER=%n" -T "GENRE=%m" -T "COMMENT=%e" %s -o %d

TOC извлечённого CD

Трек | Старт | Длительность | Начальный сектор | Конечный сектор
---------------------------------------------------------------------
1 | 0:00.00 | 5:26.64 | 0 | 24513
2 | 5:26.64 | 8:06.28 | 24514 | 60991
3 | 13:33.17 | 6:58.11 | 60992 | 92352
4 | 20:31.28 | 5:44.22 | 92353 | 118174
5 | 26:15.50 | 5:53.43 | 118175 | 144692
6 | 32:09.18 | 3:00.13 | 144693 | 158205
7 | 35:09.31 | 5:50.03 | 158206 | 184458
8 | 40:59.34 | 5:19.38 | 184459 | 208421
9 | 46:18.72 | 5:45.69 | 208422 | 234365

Характеристики диапазона извлечения и сообщения об ошибках

Выбранный диапазон

Имя файла D:\My Music\ext\Архивы\Andrew Hill - Black Fire\Andrew Hill - Black Fire.wav

Пиковый уровень 97.9 %
Качество диапазона 100.0 %
CRC копии 27CD7DDF
Копирование... OK

Ошибок не произошло

Конец отчёта
Доп. информация:
Originally recorded on November 8, 1963 at the Van Gelder Studio, Englewood Cliffs, New Jersey
Remastered in 2003 by Rudy Van Gelder

Трекер:  [ 28-Янв-2012 07:36 ]

  

Скачать .torrent

Размер .torrent файла 15 KB


Размер: 359 MB
Хэш (hash) релиза: 3e83d2a73ba5a98ceafba66a13e4fcd3bcb92830

Еще никто не оставлял запись к записи скачать торрент Andrew Hill - Black Fire {RVG Edition} - 1963, FLAC . Будь первым!

!Обратная связь