Скачать через торрент музыку Andrew Hill - Judgment! {RVG Edition} - 1964, APE бесплатно без регистрации torrent

Если у вас наблюдаются проблемы со скриншотами, переходом по ссылками, скачиванием торрентов - проблемы в блокировщике рекламы AdBlock. #хорошегоДня!


Статистика раздачи
Размер:  288 MB   |    Зарегистрирован:  5 лет 8 месяцев   |    .torrent скачан:  29 раз   |   
Раздают:  1  
   
Загрузка...
 
Автор Сообщение

Umakiro

avatar Umakiro


Andrew Hill - Judgment! {RVG Edition}

Жанр: Post-Bop/Avant-Garde Jazz
Год выпуска диска: 1964
Производитель диска: UK
Аудио кодек: APE
Тип рипа: image+.cue
Битрейт аудио: lossless
Продолжительность: 48:13
Лейбл: Blue Note
Источник: собственный рип, full scan 300dpi

Трэклист:
1. Siete Ocho
2. Flea Flop
3. Yokada Yokada
4. Alfred
5. Judgment
6. Reconciliation
7. Yokada Yokada [alternate take]

Музыканты:
Bobby Hutcherson, vibes
Andrew Hill, piano
Richard Davis, bass
Elvin Jones, drums

Originally recorded on January 8, 1964 at the Van Gelder Studio, Englewood Cliffs, New Jersey
Remastered in 2004 by Rudy Van Gelder
 
Exact Audio Copy V0.99 prebeta 4 from 23. January 2008

Отчёт EAC об извлечении, выполненном 23. мая 2010, 22:33

Andrew Hill / Judgment!

Дисковод: Optiarc DVD RW AD-7200A Adapter: 3 ID: 1

Режим чтения : ДостоверностьИспользование точного потока : ДаОтключение кэша аудио : ДаИспользование указателей C2 : Нет

Коррекция смещения при чтении : 48Способность читать области Lead-in и Lead-out : НетЗаполнение пропущенных сэмплов тишиной : ДаУдаление блоков с тишиной в начале и конце : НетПри вычислениях CRC использовались нулевые сэмплы : ДаИнтерфейс : Установленный внешний ASPI-интерфейс

Выходной формат : Внутренние WAV-операцииФормат сэмплов : 44.100 Гц; 16 бит; стерео

TOC извлечённого CD

Трек | Старт | Длительность | Начальный сектор | Конечный сектор --------------------------------------------------------------------- 1 | 0:00.00 | 8:58.17 | 0 | 40366 2 | 8:58.17 | 7:21.23 | 40367 | 73464 3 | 16:19.40 | 5:17.66 | 73465 | 97305 4 | 21:37.31 | 7:04.52 | 97306 | 129157 5 | 28:42.08 | 6:54.28 | 129158 | 160235 6 | 35:36.36 | 7:24.30 | 160236 | 193565 7 | 43:00.66 | 5:12.33 | 193566 | 216998

Характеристики диапазона извлечения и сообщения об ошибках

Выбранный диапазон

Имя файла E:\Up-Down\Andrew Hill - Judgment!\Andrew Hill - Judgment!.wav

Пиковый уровень 97.9 % Качество диапазона 100.0 % CRC копии CD72CBDC Копирование... OK

Ошибок не произошло

AccurateRip: сводка

Трек 1 точное извлечение (доверие 6) [8BA94B26]Трек 2 точное извлечение (доверие 6) [369C608A]Трек 3 точное извлечение (доверие 6) [A5C1CB8D]Трек 4 точное извлечение (доверие 6) [E798AE05]Трек 5 точное извлечение (доверие 6) [4EF82A08]Трек 6 точное извлечение (доверие 6) [33DBA743]Трек 7 точное извлечение (доверие 6) [C6B5AB8E]

Все треки извлечены точно

Конец отчёта


Трекер:  [ 28-Янв-2012 07:36 ]

  

Скачать .torrent

Размер .torrent файла 12 KB


Размер: 288 MB
Хэш (hash) релиза: 03c9bd47af56d4338a90666055206a06165df8fb

Еще никто не оставлял запись к записи скачать торрент Andrew Hill - Judgment! {RVG Edition} - 1964, APE . Будь первым!

!Обратная связь