Скачать через торрент музыку Andrew Hill - Point of Departure {RVG Edition} - 1964, FLAC бесплатно без регистрации torrent

Если у вас наблюдаются проблемы со скриншотами, переходом по ссылками, скачиванием торрентов - проблемы в блокировщике рекламы AdBlock. #хорошегоДня!


Статистика раздачи
Размер:  343 MB   |    Зарегистрирован:  5 лет 8 месяцев   |    .torrent скачан:  32 раза   |   
Раздают:  1  
   
Загрузка...
 
Автор Сообщение

Umakiro

avatar Umakiro


Andrew Hill - Point of Departure {RVG Edition}

Жанр: Avant-Garde Jazz
Год выпуска диска: 1964
Производитель диска: UK
Аудио кодек: FLAC
Тип рипа: image+.cue
Битрейт аудио: lossless
Продолжительность: 57:16
Лейбл: Blue Note
Источник: NoNaMe

Трэклист:
1. Refuge
2. New Monastery
3. Spectrum
4. Flight 19
5. Dedication
6. New Monastery (Alternate Take)
7. Flight 19 (Alternate Take)
8. Dedication (Alternate Take)

Музыканты:
Kenny Dorham - trumpet
Eric Dolphy - alto sax, bass clarinet, flute
Joe Henderson - tenor sax
Andrew Hill - piano
Richard Davis - bass
Tony Williams - drums

Originally recorded on March 21, 1964 at the Van Gelder Studio, Englewood Cliffs, New Jersey
 
Exact Audio Copy V0.99 prebeta 3 from 28. July 2007

Отчёт EAC об извлечении, выполненном 30. сентября 2008, 21:55

Andrew Hill / Point of Departure

Дисковод: _NEC DVD_RW ND-3540A Adapter: 2 ID: 0

Режим чтения : ДостоверностьИспользование точного потока : ДаОтключение кэша аудио : ДаИспользование указателей C2 : Нет

Коррекция смещения при чтении : 48Способность читать области Lead-in и Lead-out : НетЗаполнение пропущенных сэмплов тишиной : ДаУдаление блоков с тишиной в начале и конце : НетПри вычислениях CRC использовались нулевые сэмплы : ДаИнтерфейс : Установленный внешний ASPI-интерфейс

Выходной формат : Пользовательский кодировщикВыбранный битрейт : 768 kBit/sКачество : ВысокийДобавление ID3-тэга : ДаУтилита сжатия : C:\Program Files\Exact Audio Copy\FLAC\FLAC.EXEДополнительные параметры : -6 -V -T "ARTIST=%a" -T "TITLE=%t" -T "ALBUM=%g" -T "DATE=%y" -T "TRACKNUMBER=%n" -T "GENRE=%m" -T "COMMENT=%e" %s -o %d

TOC извлечённого CD

Трек | Старт | Длительность | Начальный сектор | Конечный сектор --------------------------------------------------------------------- 1 | 0:00.00 | 12:16.45 | 0 | 55244 2 | 12:16.45 | 7:05.05 | 55245 | 87124 3 | 19:21.50 | 9:47.39 | 87125 | 131188 4 | 29:09.14 | 4:18.24 | 131189 | 150562 5 | 33:27.38 | 6:45.16 | 150563 | 180953 6 | 40:12.54 | 6:13.52 | 180954 | 208980 7 | 46:26.31 | 3:49.38 | 208981 | 226193 8 | 50:15.69 | 7:01.03 | 226194 | 257771

Характеристики диапазона извлечения и сообщения об ошибках

Выбранный диапазон

Имя файла C:\Documents and Settings\Миша\Мои документы\Andrew Hill - Point of Departure\Andrew Hill - Point of Departure.wav

Пиковый уровень 97.9 % Качество диапазона 100.0 % CRC копии 2090FB52 Копирование... OK

Ошибок не произошло

AccurateRip: сводка

Трек 1 точное извлечение (доверие 6) [662DB2C4]Трек 2 точное извлечение (доверие 6) [04104141]Трек 3 точное извлечение (доверие 6) [E7C2484F]Трек 4 точное извлечение (доверие 6) [4C00A532]Трек 5 точное извлечение (доверие 6) [95E4C036]Трек 6 точное извлечение (доверие 6) [79D53396]Трек 7 точное извлечение (доверие 6) [B60D777D]Трек 8 точное извлечение (доверие 6) [F2693BE6]

Все треки извлечены точно

Конец отчёта


Трекер:  [ 28-Янв-2012 07:35 ]

  

Скачать .torrent

Размер .torrent файла 14 KB


Размер: 343 MB
Хэш (hash) релиза: b9dc3414fb9be86fe58a3addb9ae4737bd6e9eb7

Еще никто не оставлял запись к записи скачать торрент Andrew Hill - Point of Departure {RVG Edition} - 1964, FLAC . Будь первым!

!Обратная связь