Скачать через торрент музыку Andrew Hill - Compulsion {RVG Edition} - 1965, FLAC бесплатно без регистрации torrent

Если у вас наблюдаются проблемы со скриншотами, переходом по ссылками, скачиванием торрентов - проблемы в блокировщике рекламы AdBlock. #хорошегоДня!


Статистика раздачи
Размер:  265 MB   |    Зарегистрирован:  5 лет 8 месяцев   |    .torrent скачан:  41 раз   |   
Раздают:  1  
   
Загрузка...
 
Автор Сообщение

Umakiro

avatar Umakiro


Andrew Hill - Compulsion {RVG Edition}

Жанр: Avant-Garde Jazz, Post-Bop
Год выпуска диска: 1965
Производитель диска: USA
Аудио кодек: FLAC
Тип рипа: image+.cue
Битрейт аудио: lossless
Продолжительность: 40:55
Лейбл: Blue Note

Трэклист:
1 Premonition
2 Compulsion
3 Legacy
4 Limbo

Музыканты:
Freddie Hubbard, trumpet, fleugelhorn
John Gilmore, tenor sax, bass clarinet
Andrew Hill, piano
Cecil McBee, bass
Richard Davis, bass(#3)
Joe Chambers, drums
Nadi Qamar, African drums, thumd piano, percussion
Renaud Simmons, congas, percussion
Exact Audio Copy V0.99 prebeta 4 from 23. January 2008

Отчёт EAC об извлечении, выполненном 3. февраля 2009, 22:40

Andrew Hill / Compulsion

Дисковод: _NEC NR-7900A Adapter: 3 ID: 1

Режим чтения : Достоверность
Использование точного потока : Да
Отключение кэша аудио : Да
Использование указателей C2 : Нет

Коррекция смещения при чтении : 685
Способность читать области Lead-in и Lead-out : Нет
Заполнение пропущенных сэмплов тишиной : Да
Удаление блоков с тишиной в начале и конце : Нет
При вычислениях CRC использовались нулевые сэмплы : Да
Интерфейс : Установленный внешний ASPI-интерфейс

Выходной формат : Пользовательский кодировщик
Выбранный битрейт : 768 kBit/s
Качество : Высокий
Добавление ID3-тэга : Нет
Утилита сжатия : C:\Program Files\Exact Audio Copy\FLAC\FLAC.EXE
Дополнительные параметры : -6 -V -T "ARTIST=%a" -T "TITLE=%t" -T "ALBUM=%g" -T "DATE=%y" -T "TRACKNUMBER=%n" -T "GENRE=%m" -T "COMMENT=%e" %s -o %d

TOC извлечённого CD

Трек | Старт | Длительность | Начальный сектор | Конечный сектор
---------------------------------------------------------------------
1 | 0:00.00 | 14:15.21 | 0 | 64145
2 | 14:15.21 | 5:50.40 | 64146 | 90435
3 | 20:05.61 | 10:32.07 | 90436 | 137842
4 | 30:37.68 | 10:17.68 | 137843 | 184185

Характеристики диапазона извлечения и сообщения об ошибках

Выбранный диапазон

Имя файла D:\My Music\ext\Архивы\Andrew Hill - Compulsion\Andrew Hill - Compulsion.wav

Пиковый уровень 97.9 %
Качество диапазона 99.9 %
CRC копии 14E8B7B2
Копирование... OK

Ошибок не произошло

AccurateRip: сводка

Трек 1 точное извлечение (доверие 6) [F9DE5553]
Трек 2 точное извлечение (доверие 6) [8E746A77]
Трек 3 точное извлечение (доверие 6) [65527D6E]
Трек 4 точное извлечение (доверие 6) [0E9B9A87]

Все треки извлечены точно

Конец отчёта


Трекер:  [ 28-Янв-2012 07:34 ]

  

Скачать .torrent

Размер .torrent файла 11 KB


Размер: 265 MB
Хэш (hash) релиза: 3709a7071fad9c9e69409018b470994a3afe66f5

Еще никто не оставлял запись к записи скачать торрент Andrew Hill - Compulsion {RVG Edition} - 1965, FLAC . Будь первым!

!Обратная связь