Скачать через торрент музыку Elvin Jones, McCoy Tyner Quintet — Reunited — 1982, FLAC бесплатно без регистрации torrent

Если у вас наблюдаются проблемы со скриншотами, переходом по ссылками, скачиванием торрентов - проблемы в блокировщике рекламы AdBlock. #хорошегоДня!


Статистика раздачи
Размер:  215 MB   |    Зарегистрирован:  5 лет 8 месяцев   |    .torrent скачан:  32 раза   |   
Раздают:  1  
   
Загрузка...
 
Автор Сообщение

Umakiro

avatar Umakiro


Elvin Jones, McCoy Tyner Quintet — Reunited

Жанр: Hard Bop
Год издания диска: 1982
Издатель (лейбл): Black Hawk Records
Номер по каталогу: BKH 521 CD
Аудиокодек: FLAC (*.flac)
Тип рипа: tracks+.cue
Битрейт аудио: lossless
Продолжительность: 36:56
Релизер: Bezz
Наличие сканов в содержимом раздачи: да

Треклист:
01. Little Rock's Blues (4:38)
02. Hip Jones (7:28)
03. Korina (5:36)
04. For Tomorrow (7:12)
05. Sweet And Lovely (6:54)
06. Origin (5:07)

Personnel:
Elvin together - d
McCoy Tyner - p
Pharoah Sanders - ts
Richard Davis - b
Jean-Paul Bourelly - el-g
 
 
Exact Audio Copy V1.0 beta 3 from 29. August 2011

EAC extraction logfile from 6. October 2011, 0:20

Elvin Jones / Reunited

Used drive : PLEXTOR CD-R PREMIUM2 Adapter: 4 ID: 0

Read mode : SecureUtilize accurate stream : YesDefeat audio cache : YesMake use of C2 pointers : No

Read offset correction : 30Overread into Lead-In and Lead-Out : NoFill up missing offset samples with silence : YesDelete leading and trailing silent blocks : NoNull samples used in CRC calculations : YesUsed interface : Native Win32 interface for Win NT & 2000Gap handling : Appended to previous track

Used output format : User Defined EncoderSelected bitrate : 128 kBit/sQuality : HighAdd ID3 tag : NoCommand line compressor : C:\Program Files\Exact Audio Copy\Flac\flac.exeAdditional command line options : -8 -V -T "ARTIST=%artist%" -T "TITLE=%title%" -T "ALBUM=%albumtitle%" -T "DATE=%year%" -T "TRACKNUMBER=%tracknr%" -T "TOTALTRACKS=%numtracks%" -T "GENRE=%genre%" -T "ALBUMARTIST=%albumartist%" -T "ALBUM ARTIST=%albumartist%" -T "COMMENT=EAC Secure Mode, Test & Copy, AccurateRip, FLAC -8" %source%

TOC of the extracted CD

Track | Start | Length | Start sector | End sector --------------------------------------------------------- 1 | 0:00.00 | 4:38.25 | 0 | 20874 2 | 4:38.25 | 7:28.33 | 20875 | 54507 3 | 12:06.58 | 5:36.20 | 54508 | 79727 4 | 17:43.03 | 7:12.02 | 79728 | 112129 5 | 24:55.05 | 6:54.15 | 112130 | 143194 6 | 31:49.20 | 5:07.00 | 143195 | 166219

Track 1

Filename F:\EAC WAV\01 - Little Rock's Blues.wav

Pre-gap length 0:00:02.00

Peak level 74.1 % Extraction speed 8.4 X Track quality 100.0 % Test CRC 8328226C Copy CRC 8328226C Track not present in AccurateRip database Copy OK

Track 2

Filename F:\EAC WAV\02 - Hip Jones.wav

Pre-gap length 0:00:01.07

Peak level 85.1 % Extraction speed 9.9 X Track quality 100.0 % Test CRC 48E1DEF3 Copy CRC 48E1DEF3 Track not present in AccurateRip database Copy OK

Track 3

Filename F:\EAC WAV\03 - Korina.wav

Pre-gap length 0:00:01.10

Peak level 74.8 % Extraction speed 10.9 X Track quality 100.0 % Test CRC 9DF490D7 Copy CRC 9DF490D7 Track not present in AccurateRip database Copy OK

Track 4

Filename F:\EAC WAV\04 - For Tomorrow.wav

Pre-gap length 0:00:02.13

Peak level 87.0 % Extraction speed 12.2 X Track quality 100.0 % Test CRC F376E581 Copy CRC F376E581 Track not present in AccurateRip database Copy OK

Track 5

Filename F:\EAC WAV\05 - Sweet and Lovely.wav

Pre-gap length 0:00:03.25

Peak level 74.1 % Extraction speed 13.3 X Track quality 100.0 % Test CRC 09833349 Copy CRC 09833349 Track not present in AccurateRip database Copy OK

Track 6

Filename F:\EAC WAV\06 - Origin.wav

Pre-gap length 0:00:02.62

Peak level 70.7 % Extraction speed 12.2 X Track quality 100.0 % Test CRC 47891483 Copy CRC 47891483 Track not present in AccurateRip database Copy OK

None of the tracks are present in the AccurateRip database

No errors occurred

End of status report

==== Log checksum DC950F07CFC31805D351FD3E2455F3C32A90AED2EAD433FE177675B6C20D3568 ====
 
REM GENRE JazzREM DATE 1982REM DISCID 4A08A806REM COMMENT "ExactAudioCopy v1.0b3"PERFORMER "Elvin Jones"TITLE "Reunited"FILE "01 - Little Rock's Blues.wav" WAVE TRACK 01 AUDIO TITLE "Little Rock's Blues" PERFORMER "Elvin Jones" INDEX 01 00:00:00 TRACK 02 AUDIO TITLE "Hip Jones" PERFORMER "Elvin Jones" INDEX 00 04:37:18FILE "02 - Hip Jones.wav" WAVE INDEX 01 00:00:00 TRACK 03 AUDIO TITLE "Korina" PERFORMER "Elvin Jones" INDEX 00 07:27:23FILE "03 - Korina.wav" WAVE INDEX 01 00:00:00 TRACK 04 AUDIO TITLE "For Tomorrow" PERFORMER "Elvin Jones" INDEX 00 05:34:07FILE "04 - For Tomorrow.wav" WAVE INDEX 01 00:00:00 TRACK 05 AUDIO TITLE "Sweet and Lovely" PERFORMER "Elvin Jones" INDEX 00 07:08:52FILE "05 - Sweet and Lovely.wav" WAVE INDEX 01 00:00:00 TRACK 06 AUDIO TITLE "Origin" PERFORMER "Elvin Jones" INDEX 00 06:51:28FILE "06 - Origin.wav" WAVE INDEX 01 00:00:00


Трекер:  [ 28-Янв-2012 07:32 ]

  

Скачать .torrent

Размер .torrent файла 18 KB


Размер: 215 MB
Хэш (hash) релиза: 08b73c1908163798f9f5068b8967628c059da82c

Еще никто не оставлял запись к записи скачать торрент Elvin Jones, McCoy Tyner Quintet — Reunited — 1982, FLAC . Будь первым!

!Обратная связь