Скачать через торрент музыку Wynton Kelly Trio — Complete Vee Jay Studio Recordings бесплатно без регистрации torrent

Если у вас наблюдаются проблемы со скриншотами, переходом по ссылками, скачиванием торрентов - проблемы в блокировщике рекламы AdBlock. #хорошегоДня!


Статистика раздачи
Размер:  784 MB   |    Зарегистрирован:  5 лет 8 месяцев   |    .torrent скачан:  32 раза   |   
Раздают:  1  
   
Загрузка...
 
Автор Сообщение

Umakiro

avatar Umakiro


Wynton Kelly Trio — Complete Vee Jay Studio Recordings (2 CD)

Жанр: Bop, Hard Bop
Год издания диска: 2007
Издатель (лейбл): Lone Hill Jazz
Номер по каталогу: LHJ 10296
Аудиокодек: FLAC (*.flac)
Тип рипа: tracks+.cue
Битрейт аудио: lossless
Продолжительность: 71: 20 / 74:07
Релизер: ruskaval
Наличие сканов в содержимом раздачи: да

Disc One
01. Dear Ann (4:10)
02. Temperance (7:32)
03. Weird Lullaby (7:12)
04. On Stage (5:14)
05. Skatin' (5:49)
06. Pot Luck (6:49)
07. Come Rain Or Come Shine (5:56)
08. Make The Man Love Me (3:41)
09. Autumn Leaves (6:11)
10. Surrey With The Fringe On Top (3:51)
11. Joe's Avenue (2:52)
12. Sassy (5:12)
13. Love, I've Found You (2:38)
14. Gone With The Wind (4:15)

Disc Two
01. Someday My Prince Will Come (3:03)
02. Char's Blues (5:38)
03. Dear Ann (ALT 1 -take 1) (5:11)
04. Dear Ann (ALT 2 -take 2) (7:47)
05. Autumn Leaves (ALT 1 -take 1) (8:24)
06. Autumn Leaves (ALT 2 -take 2) (4:22)
07. Autumn Leaves (ALT 3 -take 3) (4:26)
08. Char's Blues (ALT 1 -take 1) (4:57)
09. Char's Blues (ALT 2 -take 2) (5:54)
10. Joe's Avenue (ALT 1 -take 1) (6:38)
11. Joe's Avenue (ALT 2 -take 4) (3:44)
12. Joe's Avenue (ALT 3 -take 8) (2:59)
13. Joe's Avenue (ALT 4 -take 9) (3:39)
14. Someday My Prince Will Come (ALT -take 6) (3:41)
15. Surrey With The Fringe On Top (ALT -take 3) (3:43)
WYNTON KELLY, piano on all tracks, plus:

Disc 1, 1 & Disc 2, 3-4: From Paul Chambers’ album GO:
Paul Chambers (b), Jimmy Cobb (d). Chicago, February 2, 1959.

Disc 1, 2-6: KELLY AT MIDNITE:
Paul Chambers (b), Philly Joe Jones (d). New York, April 27, 1960.

Disc 1, 7-14; Disc 2, 1-2 & 5-15: WYNTON KELLY!:
Paul Chambers or Sam Jones (b), Jimmy Cobb (d).

New York, July 20 & 21, 1961.
 
 
EAC extraction logfile from 4. February 2008, 23:58 for CDWynton Kelly Trio / Complete Vee Jay Studio Recordings (CD1 of 2 CD)

Used drive : PLEXTOR DVDR PX-755A Adapter: 1 ID: 0Read mode : Secure with NO C2, accurate stream, disable cacheRead offset correction : 30Overread into Lead-In and Lead-Out : Yes

Used output format : Internal WAV Routines 44.100 Hz; 16 Bit; Stereo

Other options : Fill up missing offset samples with silence : Yes Delete leading and trailing silent blocks : No Installed external ASPI interface

Track 1 Filename C:\Audio\Wynton Kelly Trio - Complete Vee Jay Studio Recordings, 1959-1961 (2007) [FLAC]\CD1 of 2 CD\01 - Dear Ann.wav

Pre-gap length 0:00:02.00

Peak level 95.0 % Track quality 100.0 % Test CRC CB613C81 Copy CRC CB613C81 Copy OK

Track 2 Filename C:\Audio\Wynton Kelly Trio - Complete Vee Jay Studio Recordings, 1959-1961 (2007) [FLAC]\CD1 of 2 CD\02 - Temperance.wav

Peak level 99.5 % Track quality 100.0 % Test CRC 2D687B03 Copy CRC 2D687B03 Copy OK

Track 3 Filename C:\Audio\Wynton Kelly Trio - Complete Vee Jay Studio Recordings, 1959-1961 (2007) [FLAC]\CD1 of 2 CD\03 - Weird Lullaby.wav

Peak level 47.3 % Track quality 99.9 % Test CRC 7933C674 Copy CRC 7933C674 Copy OK

Track 4 Filename C:\Audio\Wynton Kelly Trio - Complete Vee Jay Studio Recordings, 1959-1961 (2007) [FLAC]\CD1 of 2 CD\04 - On Stage.wav

Peak level 71.6 % Track quality 100.0 % Test CRC 6E3F915F Copy CRC 6E3F915F Copy OK

Track 5 Filename C:\Audio\Wynton Kelly Trio - Complete Vee Jay Studio Recordings, 1959-1961 (2007) [FLAC]\CD1 of 2 CD\05 - Skatin'.wav

Peak level 75.7 % Track quality 100.0 % Test CRC FD85996F Copy CRC FD85996F Copy OK

Track 6 Filename C:\Audio\Wynton Kelly Trio - Complete Vee Jay Studio Recordings, 1959-1961 (2007) [FLAC]\CD1 of 2 CD\06 - Pot Luck.wav

Peak level 74.0 % Track quality 100.0 % Test CRC 8C5A4FD3 Copy CRC 8C5A4FD3 Copy OK

Track 7 Filename C:\Audio\Wynton Kelly Trio - Complete Vee Jay Studio Recordings, 1959-1961 (2007) [FLAC]\CD1 of 2 CD\07 - Come Rain Or Come Shine.wav

Peak level 90.6 % Track quality 100.0 % Test CRC 3B657705 Copy CRC 3B657705 Copy OK

Track 8 Filename C:\Audio\Wynton Kelly Trio - Complete Vee Jay Studio Recordings, 1959-1961 (2007) [FLAC]\CD1 of 2 CD\08 - Make The Man Love Me.wav

Peak level 87.5 % Track quality 100.0 % Test CRC 0C4E989F Copy CRC 0C4E989F Copy OK

Track 9 Filename C:\Audio\Wynton Kelly Trio - Complete Vee Jay Studio Recordings, 1959-1961 (2007) [FLAC]\CD1 of 2 CD\09 - Autumn Leaves.wav

Peak level 100.0 % Track quality 100.0 % Test CRC 51B79EF2 Copy CRC 51B79EF2 Copy OK

Track 10 Filename C:\Audio\Wynton Kelly Trio - Complete Vee Jay Studio Recordings, 1959-1961 (2007) [FLAC]\CD1 of 2 CD\10 - Surrey With The Fringe On Top.wav

Peak level 100.0 % Track quality 100.0 % Test CRC 25D302DC Copy CRC 25D302DC Copy OK

Track 11 Filename C:\Audio\Wynton Kelly Trio - Complete Vee Jay Studio Recordings, 1959-1961 (2007) [FLAC]\CD1 of 2 CD\11 - Joe's Avenue.wav

Peak level 100.0 % Track quality 100.0 % Test CRC D6E5DAF8 Copy CRC D6E5DAF8 Copy OK

Track 12 Filename C:\Audio\Wynton Kelly Trio - Complete Vee Jay Studio Recordings, 1959-1961 (2007) [FLAC]\CD1 of 2 CD\12 - Sassy.wav

Peak level 85.0 % Track quality 100.0 % Test CRC E3392C7D Copy CRC E3392C7D Copy OK

Track 13 Filename C:\Audio\Wynton Kelly Trio - Complete Vee Jay Studio Recordings, 1959-1961 (2007) [FLAC]\CD1 of 2 CD\13 - Love, I've Found You.wav

Peak level 88.1 % Track quality 99.9 % Test CRC 0E9B8053 Copy CRC 0E9B8053 Copy OK

Track 14 Filename C:\Audio\Wynton Kelly Trio - Complete Vee Jay Studio Recordings, 1959-1961 (2007) [FLAC]\CD1 of 2 CD\14 - Gone With The Wind.wav

Peak level 96.5 % Track quality 99.9 % Test CRC 3E3AAC3A Copy CRC 3E3AAC3A Copy OK

No errors occured

End of status report
 
REM GENRE JazzREM DATE 2007REM DISCID CC10B80EREM COMMENT "ExactAudioCopy v0.95b4"PERFORMER "Wynton Kelly Trio"TITLE "Complete Vee Jay Studio Recordings (disc 1)"FILE "01 - Dear Ann.flac" WAVE TRACK 01 AUDIO TITLE "Dear Ann" PERFORMER "Wynton Kelly Trio" INDEX 01 00:00:00FILE "02 - Temperance.flac" WAVE TRACK 02 AUDIO TITLE "Temperance" PERFORMER "Wynton Kelly Trio" INDEX 01 00:00:00FILE "03 - Weird Lullaby.flac" WAVE TRACK 03 AUDIO TITLE "Weird Lullaby" PERFORMER "Wynton Kelly Trio" INDEX 01 00:00:00FILE "04 - On Stage.flac" WAVE TRACK 04 AUDIO TITLE "On Stage" PERFORMER "Wynton Kelly Trio" INDEX 01 00:00:00FILE "05 - Skatin'.flac" WAVE TRACK 05 AUDIO TITLE "Skatin'" PERFORMER "Wynton Kelly Trio" INDEX 01 00:00:00FILE "06 - Pot Luck.flac" WAVE TRACK 06 AUDIO TITLE "Pot Luck" PERFORMER "Wynton Kelly Trio" INDEX 01 00:00:00FILE "07 - Come Rain Or Come Shine.flac" WAVE TRACK 07 AUDIO TITLE "Come Rain Or Come Shine" PERFORMER "Wynton Kelly Trio" INDEX 01 00:00:00FILE "08 - Make The Man Love Me.flac" WAVE TRACK 08 AUDIO TITLE "Make The Man Love Me" PERFORMER "Wynton Kelly Trio" INDEX 01 00:00:00FILE "09 - Autumn Leaves.flac" WAVE TRACK 09 AUDIO TITLE "Autumn Leaves" PERFORMER "Wynton Kelly Trio" INDEX 01 00:00:00FILE "10 - Surrey With The Fringe On Top.flac" WAVE TRACK 10 AUDIO TITLE "Surrey With The Fringe On Top" PERFORMER "Wynton Kelly Trio" INDEX 01 00:00:00FILE "11 - Joe's Avenue.flac" WAVE TRACK 11 AUDIO TITLE "Joe's Avenue" PERFORMER "Wynton Kelly Trio" INDEX 01 00:00:00FILE "12 - Sassy.flac" WAVE TRACK 12 AUDIO TITLE "Sassy" PERFORMER "Wynton Kelly Trio" INDEX 01 00:00:00FILE "13 - Love, I've Found You.flac" WAVE TRACK 13 AUDIO TITLE "Love, I've Found You" PERFORMER "Wynton Kelly Trio" INDEX 01 00:00:00FILE "14 - Gone With The Wind.flac" WAVE TRACK 14 AUDIO TITLE "Gone With The Wind" PERFORMER "Wynton Kelly Trio" INDEX 01 00:00:00
 
EAC extraction logfile from 5. February 2008, 18:52 for CDWynton Kelly Trio / Complete Vee Jay Studio Recordings (CD2 of 2 CD)

Used drive : PLEXTOR DVDR PX-755A Adapter: 1 ID: 0Read mode : Secure with NO C2, accurate stream, disable cacheRead offset correction : 30Overread into Lead-In and Lead-Out : Yes

Used output format : Internal WAV Routines 44.100 Hz; 16 Bit; Stereo

Other options : Fill up missing offset samples with silence : Yes Delete leading and trailing silent blocks : No Installed external ASPI interface

Track 1 Filename C:\Audio\Wynton Kelly Trio - Complete Vee Jay Studio Recordings, 1959-1961 (2007) [FLAC]\CD2 of 2 CD\01 - Someday My Prince Will Come.wav

Pre-gap length 0:00:02.00

Peak level 77.1 % Track quality 100.0 % Test CRC 2EA3E83E Copy CRC 2EA3E83E Copy OK

Track 2 Filename C:\Audio\Wynton Kelly Trio - Complete Vee Jay Studio Recordings, 1959-1961 (2007) [FLAC]\CD2 of 2 CD\02 - Char's Blues.wav

Peak level 100.0 % Track quality 100.0 % Test CRC 4FF676C7 Copy CRC 4FF676C7 Copy OK

Track 3 Filename C:\Audio\Wynton Kelly Trio - Complete Vee Jay Studio Recordings, 1959-1961 (2007) [FLAC]\CD2 of 2 CD\03 - Dear Ann (ALT 1 -take 1).wav

Peak level 85.3 % Track quality 100.0 % Test CRC F7057B70 Copy CRC F7057B70 Copy OK

Track 4 Filename C:\Audio\Wynton Kelly Trio - Complete Vee Jay Studio Recordings, 1959-1961 (2007) [FLAC]\CD2 of 2 CD\04 - Dear Ann (ALT 2 -take 2).wav

Peak level 87.3 % Track quality 100.0 % Test CRC C2D414EE Copy CRC C2D414EE Copy OK

Track 5 Filename C:\Audio\Wynton Kelly Trio - Complete Vee Jay Studio Recordings, 1959-1961 (2007) [FLAC]\CD2 of 2 CD\05 - Autumn Leaves (ALT 1 -take 1).wav

Peak level 90.3 % Track quality 100.0 % Test CRC 43D344F2 Copy CRC 43D344F2 Copy OK

Track 6 Filename C:\Audio\Wynton Kelly Trio - Complete Vee Jay Studio Recordings, 1959-1961 (2007) [FLAC]\CD2 of 2 CD\06 - Autumn Leaves (ALT 2 -take 2).wav

Peak level 96.4 % Track quality 100.0 % Test CRC A8F81371 Copy CRC A8F81371 Copy OK

Track 7 Filename C:\Audio\Wynton Kelly Trio - Complete Vee Jay Studio Recordings, 1959-1961 (2007) [FLAC]\CD2 of 2 CD\07 - Autumn Leaves (ALT 3 -take 3).wav

Peak level 84.1 % Track quality 100.0 % Test CRC 81E22CBC Copy CRC 81E22CBC Copy OK

Track 8 Filename C:\Audio\Wynton Kelly Trio - Complete Vee Jay Studio Recordings, 1959-1961 (2007) [FLAC]\CD2 of 2 CD\08 - Char's Blues (ALT 1 -take 1).wav

Peak level 85.8 % Track quality 99.9 % Test CRC F30CE1CF Copy CRC F30CE1CF Copy OK

Track 9 Filename C:\Audio\Wynton Kelly Trio - Complete Vee Jay Studio Recordings, 1959-1961 (2007) [FLAC]\CD2 of 2 CD\09 - Char's Blues (ALT 2 -take 2).wav

Peak level 88.1 % Track quality 100.0 % Test CRC 98E8B201 Copy CRC 98E8B201 Copy OK

Track 10 Filename C:\Audio\Wynton Kelly Trio - Complete Vee Jay Studio Recordings, 1959-1961 (2007) [FLAC]\CD2 of 2 CD\10 - Joe's Avenue (ALT 1 -take 1).wav

Peak level 86.5 % Track quality 100.0 % Test CRC 62B834DB Copy CRC 62B834DB Copy OK

Track 11 Filename C:\Audio\Wynton Kelly Trio - Complete Vee Jay Studio Recordings, 1959-1961 (2007) [FLAC]\CD2 of 2 CD\11 - Joe's Avenue (ALT 2 -take 4).wav

Peak level 78.5 % Track quality 100.0 % Test CRC 1AC5034A Copy CRC 1AC5034A Copy OK

Track 12 Filename C:\Audio\Wynton Kelly Trio - Complete Vee Jay Studio Recordings, 1959-1961 (2007) [FLAC]\CD2 of 2 CD\12 - Joe's Avenue (ALT 3 -take 8).wav

Peak level 85.2 % Track quality 100.0 % Test CRC 70F03E94 Copy CRC 70F03E94 Copy OK

Track 13 Filename C:\Audio\Wynton Kelly Trio - Complete Vee Jay Studio Recordings, 1959-1961 (2007) [FLAC]\CD2 of 2 CD\13 - Joe's Avenue (ALT 4 -take 9).wav

Peak level 93.7 % Track quality 100.0 % Test CRC 18F0BA34 Copy CRC 18F0BA34 Copy OK

Track 14 Filename C:\Audio\Wynton Kelly Trio - Complete Vee Jay Studio Recordings, 1959-1961 (2007) [FLAC]\CD2 of 2 CD\14 - Someday My Prince Will Come (ALT -take 6).wav

Peak level 89.2 % Track quality 100.0 % Test CRC 5B02B1F7 Copy CRC 5B02B1F7 Copy OK

Track 15 Filename C:\Audio\Wynton Kelly Trio - Complete Vee Jay Studio Recordings, 1959-1961 (2007) [FLAC]\CD2 of 2 CD\15 - Surrey With The Fringe On Top (ALT -take 3).wav

Peak level 84.9 % Track quality 100.0 % Test CRC A4F1512F Copy CRC A4F1512F Copy OK

No errors occured

End of status report
 
REM GENRE JazzREM DATE 2007REM DISCID C6115F0FREM COMMENT "ExactAudioCopy v0.95b4"PERFORMER "Wynton Kelly Trio"TITLE "Complete Vee Jay Studio Recordings (disc 2)"FILE "01 - Someday My Prince Will Come.flac" WAVE TRACK 01 AUDIO TITLE "Someday My Prince Will Come" PERFORMER "Wynton Kelly Trio" INDEX 01 00:00:00FILE "02 - Char's Blues.flac" WAVE TRACK 02 AUDIO TITLE "Char's Blues" PERFORMER "Wynton Kelly Trio" INDEX 01 00:00:00FILE "03 - Dear Ann (ALT 1 -take 1).flac" WAVE TRACK 03 AUDIO TITLE "Dear Ann (ALT 1 -take 1)" PERFORMER "Wynton Kelly Trio" INDEX 01 00:00:00FILE "04 - Dear Ann (ALT 2 -take 2).flac" WAVE TRACK 04 AUDIO TITLE "Dear Ann (ALT 2 -take 2)" PERFORMER "Wynton Kelly Trio" INDEX 01 00:00:00FILE "05 - Autumn Leaves (ALT 1 -take 1).flac" WAVE TRACK 05 AUDIO TITLE "Autumn Leaves (ALT 1 -take 1)" PERFORMER "Wynton Kelly Trio" INDEX 01 00:00:00FILE "06 - Autumn Leaves (ALT 2 -take 2).flac" WAVE TRACK 06 AUDIO TITLE "Autumn Leaves (ALT 2 -take 2)" PERFORMER "Wynton Kelly Trio" INDEX 01 00:00:00FILE "07 - Autumn Leaves (ALT 3 -take 3).flac" WAVE TRACK 07 AUDIO TITLE "Autumn Leaves (ALT 3 -take 3)" PERFORMER "Wynton Kelly Trio" INDEX 01 00:00:00FILE "08 - Char's Blues (ALT 1 -take 1).flac" WAVE TRACK 08 AUDIO TITLE "Char's Blues (ALT 1 -take 1)" PERFORMER "Wynton Kelly Trio" INDEX 01 00:00:00FILE "09 - Char's Blues (ALT 2 -take 2).flac" WAVE TRACK 09 AUDIO TITLE "Char's Blues (ALT 2 -take 2)" PERFORMER "Wynton Kelly Trio" INDEX 01 00:00:00FILE "10 - Joe's Avenue (ALT 1 -take 1).flac" WAVE TRACK 10 AUDIO TITLE "Joe's Avenue (ALT 1 -take 1)" PERFORMER "Wynton Kelly Trio" INDEX 01 00:00:00FILE "11 - Joe's Avenue (ALT 2 -take 4).flac" WAVE TRACK 11 AUDIO TITLE "Joe's Avenue (ALT 2 -take 4)" PERFORMER "Wynton Kelly Trio" INDEX 01 00:00:00FILE "12 - Joe's Avenue (ALT 3 -take 8).flac" WAVE TRACK 12 AUDIO TITLE "Joe's Avenue (ALT 3 -take 8)" PERFORMER "Wynton Kelly Trio" INDEX 01 00:00:00FILE "13 - Joe's Avenue (ALT 4 -take 9).flac" WAVE TRACK 13 AUDIO TITLE "Joe's Avenue (ALT 4 -take 9)" PERFORMER "Wynton Kelly Trio" INDEX 01 00:00:00FILE "14 - Someday My Prince Will Come (ALT -take 6).flac" WAVE TRACK 14 AUDIO TITLE "Someday My Prince Will Come (ALT -take 6)" PERFORMER "Wynton Kelly Trio" INDEX 01 00:00:00FILE "15 - Surrey With The Fringe On Top (ALT -take 3).flac" WAVE TRACK 15 AUDIO TITLE "Surrey With The Fringe On Top (ALT -take 3)" PERFORMER "Wynton Kelly Trio" INDEX 01 00:00:00


Трекер:  [ 28-Янв-2012 07:31 ]

  

Скачать .torrent

Размер .torrent файла 19 KB


Размер: 784 MB
Хэш (hash) релиза: eb39e95c75cc1a87711b5a19fdccb1d2d5c026c9

Еще никто не оставлял запись к записи скачать торрент Wynton Kelly Trio — Complete Vee Jay Studio Recordings . Будь первым!

!Обратная связь