Скачать через торрент музыку Stefon Harris, David Sanchez, Christian Scott — Ninety Miles — 2011, FLAC бесплатно без регистрации torrent

Если у вас наблюдаются проблемы со скриншотами, переходом по ссылками, скачиванием торрентов - проблемы в блокировщике рекламы AdBlock. #хорошегоДня!


Статистика раздачи
Размер:  367 MB   |    Зарегистрирован:  5 лет 8 месяцев   |    .torrent скачан:  33 раза   |   
Раздают:  1  
   
Загрузка...
 
Автор Сообщение

Umakiro

avatar Umakiro


Stefon Harris, David Sanchez, Christian Scott — Ninety Miles

Жанр: Post-Bop
Год издания диска: 2011
Издатель (лейбл): Concord Picante
Номер по каталогу: 0888072331433
Аудиокодек: FLAC (*.flac)
Тип рипа: tracks+.cue
Битрейт аудио: lossless
Продолжительность: 53:09
Источник (релизер): tiburon
Наличие сканов в содержимом раздачи: да

Треклист:
01. Nengueleru (5:04)
02. E'cha (4:17)
03. City Sunrise (6:47)
04. The Forgotten Ones (3:53)
05. Black Action Figure (6:21)
06. Congo (6:30)
07. And This Too Shall Pass (9:28)
08. Brown Belle Blues (5:01)
09. La Fiesta Va (5:47)
 
 
Exact Audio Copy V1.0 beta 2 from 29. April 2011

EAC extraction logfile from 8. July 2011, 19:14

Stefon Harris, David Sanchez, Christian Scott / Ninety Miles

Used drive : PLEXTOR DVDR PX-L890SA Adapter: 2 ID: 1

Read mode : SecureUtilize accurate stream : YesDefeat audio cache : YesMake use of C2 pointers : No

Read offset correction : 6Overread into Lead-In and Lead-Out : NoFill up missing offset samples with silence : YesDelete leading and trailing silent blocks : NoNull samples used in CRC calculations : YesUsed interface : Native Win32 interface for Win NT & 2000Gap handling : Appended to previous track

Used output format : User Defined EncoderSelected bitrate : 256 kBit/sQuality : HighAdd ID3 tag : NoCommand line compressor : C:\Program Files (x86)\Exact Audio Copy\FLAC\FLAC.EXEAdditional command line options : -8 -V -T "ARTIST=%artist%" -T "TITLE=%title%" -T "ALBUM=%albumtitle%" -T "DATE=%year%" -T "TRACKNUMBER=%tracknr%" -T "TOTALTRACKS=%numtracks%" -T "GENRE=%genre%" -T "ALBUMARTIST=%albumartist%" -T "ALBUM ARTIST=%albumartist%

TOC of the extracted CD

Track | Start | Length | Start sector | End sector --------------------------------------------------------- 1 | 0:00.00 | 5:04.06 | 0 | 22805 2 | 5:04.06 | 4:17.02 | 22806 | 42082 3 | 9:21.08 | 6:47.09 | 42083 | 72616 4 | 16:08.17 | 3:53.07 | 72617 | 90098 5 | 20:01.24 | 6:21.16 | 90099 | 118689 6 | 26:22.40 | 6:30.04 | 118690 | 147943 7 | 32:52.44 | 9:28.23 | 147944 | 190566 8 | 42:20.67 | 5:00.73 | 190567 | 213139 9 | 47:21.65 | 5:46.69 | 213140 | 239158

Track 1

Filename F:\Flac Rips\01 - Nengueleru.wav

Pre-gap length 0:00:02.00

Peak level 98.8 % Extraction speed 3.1 X Track quality 99.9 % Test CRC EF47C62C Copy CRC EF47C62C Track not present in AccurateRip database Copy OK

Track 2

Filename F:\Flac Rips\02 - E'cha.wav

Peak level 98.8 % Extraction speed 4.0 X Track quality 100.0 % Test CRC 3F34881C Copy CRC 3F34881C Track not present in AccurateRip database Copy OK

Track 3

Filename F:\Flac Rips\03 - City Sunrise.wav

Peak level 98.8 % Extraction speed 4.7 X Track quality 100.0 % Test CRC 4D6B17B4 Copy CRC 4D6B17B4 Track not present in AccurateRip database Copy OK

Track 4

Filename F:\Flac Rips\04 - The Forgotten Ones.wav

Peak level 78.3 % Extraction speed 4.8 X Track quality 100.0 % Test CRC B364D513 Copy CRC B364D513 Track not present in AccurateRip database Copy OK

Track 5

Filename F:\Flac Rips\05 - Black Action Figure.wav

Peak level 98.8 % Extraction speed 5.5 X Track quality 100.0 % Test CRC 5ABA31A5 Copy CRC 5ABA31A5 Track not present in AccurateRip database Copy OK

Track 6

Filename F:\Flac Rips\06 - Congo.wav

Peak level 99.7 % Extraction speed 5.9 X Track quality 100.0 % Test CRC A8C6E858 Copy CRC A8C6E858 Track not present in AccurateRip database Copy OK

Track 7

Filename F:\Flac Rips\07 - And This Too Shall Pass.wav

Peak level 98.8 % Extraction speed 6.6 X Track quality 100.0 % Test CRC 1588369E Copy CRC 1588369E Track not present in AccurateRip database Copy OK

Track 8

Filename F:\Flac Rips\08 - Brown Belle Blues.wav

Peak level 98.8 % Extraction speed 6.6 X Track quality 100.0 % Test CRC A62B29D1 Copy CRC A62B29D1 Track not present in AccurateRip database Copy OK

Track 9

Filename F:\Flac Rips\09 - La Fiesta Va.wav

Peak level 98.8 % Extraction speed 5.9 X Track quality 99.9 % Test CRC 62F77F81 Copy CRC 62F77F81 Track not present in AccurateRip database Copy OK

None of the tracks are present in the AccurateRip database

No errors occurred

End of status report

==== Log checksum 4427DED01A3C06920BBA364A6302BBFE255FC1880E629CFBBF82788805A1C2B7 ====
 
REM GENRE JazzREM DATE 2011REM DISCID 740C7409REM COMMENT "ExactAudioCopy v1.0b2"PERFORMER "Stefon Harris, David Sanchez, Christian Scott"TITLE "Ninety Miles"FILE "01 - Nengueleru.wav" WAVE TRACK 01 AUDIO TITLE "Nengueleru" PERFORMER "Stefon Harris, David Sanchez, Christian Scott" INDEX 01 00:00:00FILE "02 - E'cha.wav" WAVE TRACK 02 AUDIO TITLE "E'cha" PERFORMER "Stefon Harris, David Sanchez, Christian Scott" INDEX 01 00:00:00FILE "03 - City Sunrise.wav" WAVE TRACK 03 AUDIO TITLE "City Sunrise" PERFORMER "Stefon Harris, David Sanchez, Christian Scott" INDEX 01 00:00:00FILE "04 - The Forgotten Ones.wav" WAVE TRACK 04 AUDIO TITLE "The Forgotten Ones" PERFORMER "Stefon Harris, David Sanchez, Christian Scott" INDEX 01 00:00:00FILE "05 - Black Action Figure.wav" WAVE TRACK 05 AUDIO TITLE "Black Action Figure" PERFORMER "Stefon Harris, David Sanchez, Christian Scott" INDEX 01 00:00:00FILE "06 - Congo.wav" WAVE TRACK 06 AUDIO TITLE "Congo" PERFORMER "Stefon Harris, David Sanchez, Christian Scott" INDEX 01 00:00:00FILE "07 - And This Too Shall Pass.wav" WAVE TRACK 07 AUDIO TITLE "And This Too Shall Pass" PERFORMER "Stefon Harris, David Sanchez, Christian Scott" INDEX 01 00:00:00FILE "08 - Brown Belle Blues.wav" WAVE TRACK 08 AUDIO TITLE "Brown Belle Blues" PERFORMER "Stefon Harris, David Sanchez, Christian Scott" INDEX 01 00:00:00FILE "09 - La Fiesta Va.wav" WAVE TRACK 09 AUDIO TITLE "La Fiesta Va" PERFORMER "Stefon Harris, David Sanchez, Christian Scott" INDEX 01 00:00:00
Stefon Harris - vibraphone
David Sanchez - tenor saxophone
Christian Scott - trumpet (1-3, 5-8)
Rember Duharte - piano (1, 6, 8), voice (6)
Osmar Salazar - electric bass (1, 6, 8)
Eduardo Barroetabena - drums (1, 6, 8)
Jean Roberto San Miguel - bata, congas, percussion (1, 6, 8)
Harold Lуpez-Nussa - piano (2-3, 5, 7, 9)
Yandy Martinez Gonzalez - bass (2-3, 5, 7, 9)
Ruy Adrian Lуpez-Nussa - drums (2-3, 5, 7, 9)
Edgar Martinez Ochoa - congas, djembe, percussion (2-3, 5, 7, 9), bata (4)


Трекер:  [ 28-Янв-2012 07:31 ]

  

Скачать .torrent

Размер .torrent файла 16 KB


Размер: 367 MB
Хэш (hash) релиза: 2a8464fd77849117197fc34dd7c5662d273e0cf5

Еще никто не оставлял запись к записи скачать торрент Stefon Harris, David Sanchez, Christian Scott — Ninety Miles — 2011, FLAC . Будь первым!

!Обратная связь