Скачать через торрент музыку The Shirley Scott Trio — Like Cozy бесплатно без регистрации torrent

Если у вас наблюдаются проблемы со скриншотами, переходом по ссылками, скачиванием торрентов - проблемы в блокировщике рекламы AdBlock. #хорошегоДня!


Статистика раздачи
Размер:  412 MB   |    Зарегистрирован:  5 лет 8 месяцев   |    .torrent скачан:  40 раз   |   
Раздают:  1  
   
Загрузка...
 
Автор Сообщение

Umakiro

avatar Umakiro


The Shirley Scott Trio — Like Cozy (1960)

Жанр: Post-Bop, Hammond B3
Год издания диска: 2001
Издатель (лейбл): Prestige
Номер по каталогу: PRCD-24258-2
Аудиокодек: FLAC (*.flac)
Тип рипа: tracks+.cue
Битрейт аудио: lossless
Продолжительность: 72:11
Релизер: ruskaval
Наличие сканов в содержимом раздачи: да

Треклист:
01. Sweet Lorraine (4:34)
02. I Thought I'd Let You Know (4:22)
03. I Should Care (4:49)
04. Spring Is Here (4:49)
05. I Didn't Know What Time It Was (4:00)
06. Gee Baby, Ain't I Good To You? (4:16)
07. Until The Real Thing Comes Along (5:12)
08. Lover Man (Oh, Where Can You Be?) (3:49)
09. Like Cozy (4:12)
10. Little Girl Blue (5:02)
11. Laura (5:02)
12. You Do Something To Me (5:19)
13. Once In A While (4:35)
14. 'Deed I Do (4:14)
15. More Than You Know (4:09)
16. My Heart Stood Still (3:48)

Personnel:
Shirley Scott - org, p (#2, 4, 5, 8)
George Tucker - b (#2, 4, 5, 8)
George Duvivier - b
Arthur Edghill - d
 
 
Exact Audio Copy V1.0 beta 1 from 15. November 2010

EAC extraction logfile from 3. July 2011, 16:58

Shirley Scott / Like Cozy

Used drive : TSSTcorpCDDVDW SH-S203N Adapter: 0 ID: 2

Read mode : SecureUtilize accurate stream : YesDefeat audio cache : YesMake use of C2 pointers : No

Read offset correction : 6Overread into Lead-In and Lead-Out : NoFill up missing offset samples with silence : YesDelete leading and trailing silent blocks : NoNull samples used in CRC calculations : YesUsed interface : Installed external ASPI interfaceGap handling : Appended to previous track

Used output format : User Defined EncoderSelected bitrate : 768 kBit/sQuality : HighAdd ID3 tag : NoCommand line compressor : C:\Program Files\Exact Audio Copy-NEW\Flac\flac.exeAdditional command line options : -8 -V -T "ARTIST=%a" -T "TITLE=%t" -T "ALBUM=%g" -T "DATE=%y" -T "TRACKNUMBER=%n" -T "TOTALTRACKS=%x" -T "GENRE=%m" -T "ALBUMARTIST=%v" -T "ALBUM ARTIST=%v" -T "COMMENT=EAC V1.01b1, Secure Mode, Test & Copy, AccurateRip, FL

TOC of the extracted CD

Track | Start | Length | Start sector | End sector --------------------------------------------------------- 1 | 0:00.00 | 4:33.42 | 0 | 20516 2 | 4:33.42 | 4:22.33 | 20517 | 40199 3 | 8:56.00 | 4:48.52 | 40200 | 61851 4 | 13:44.52 | 4:48.68 | 61852 | 83519 5 | 18:33.45 | 3:59.70 | 83520 | 101514 6 | 22:33.40 | 4:16.37 | 101515 | 120751 7 | 26:50.02 | 5:11.48 | 120752 | 144124 8 | 32:01.50 | 3:48.72 | 144125 | 161296 9 | 35:50.47 | 4:12.13 | 161297 | 180209 10 | 40:02.60 | 5:01.72 | 180210 | 202856 11 | 45:04.57 | 5:01.65 | 202857 | 225496 12 | 50:06.47 | 5:18.70 | 225497 | 249416 13 | 55:25.42 | 4:34.48 | 249417 | 270014 14 | 60:00.15 | 4:14.15 | 270015 | 289079 15 | 64:14.30 | 4:08.55 | 289080 | 307734 16 | 68:23.10 | 3:48.27 | 307735 | 324861

Track 1

Filename J:\New Rips\Shirley Scott - Like Cozy (2001) [FLAC]\01 - Sweet Lorraine.wav

Pre-gap length 0:00:02.00

Peak level 100.0 % Extraction speed 5.0 X Track quality 100.0 % Test CRC B23639A6 Copy CRC B23639A6 Cannot be verified as accurate (confidence 1) [71730395], AccurateRip returned [3671F89A] Copy OK

Track 2

Filename J:\New Rips\Shirley Scott - Like Cozy (2001) [FLAC]\02 - I Thought I'd Let You Know.wav

Pre-gap length 0:00:01.25

Peak level 98.5 % Extraction speed 5.6 X Track quality 100.0 % Test CRC 411415D1 Copy CRC 411415D1 Cannot be verified as accurate (confidence 1) [4F277D0F], AccurateRip returned [9C44B29C] Copy OK

Track 3

Filename J:\New Rips\Shirley Scott - Like Cozy (2001) [FLAC]\03 - I Should Care.wav

Pre-gap length 0:00:01.38

Peak level 100.0 % Extraction speed 6.1 X Track quality 100.0 % Test CRC A277DAA8 Copy CRC A277DAA8 Cannot be verified as accurate (confidence 1) [0485C1DC], AccurateRip returned [77FB7FB2] Copy OK

Track 4

Filename J:\New Rips\Shirley Scott - Like Cozy (2001) [FLAC]\04 - Spring Is Here.wav

Pre-gap length 0:00:01.67

Peak level 98.5 % Extraction speed 5.5 X Track quality 99.9 % Test CRC 5D884C58 Copy CRC 5D884C58 Cannot be verified as accurate (confidence 1) [05C3F3FD], AccurateRip returned [4CD3ACC4] Copy OK

Track 5

Filename J:\New Rips\Shirley Scott - Like Cozy (2001) [FLAC]\05 - I Didn't Know What Time It Was.wav

Pre-gap length 0:00:03.25

Peak level 99.5 % Extraction speed 6.8 X Track quality 100.0 % Test CRC 75E77976 Copy CRC 75E77976 Cannot be verified as accurate (confidence 1) [E8B656FF], AccurateRip returned [456DA62B] Copy OK

Track 6

Filename J:\New Rips\Shirley Scott - Like Cozy (2001) [FLAC]\06 - Gee Baby Ain't I Good To You.wav

Pre-gap length 0:00:01.50

Peak level 100.0 % Extraction speed 7.2 X Track quality 100.0 % Test CRC E42F7C3C Copy CRC E42F7C3C Cannot be verified as accurate (confidence 1) [31E9D277], AccurateRip returned [60066FD2] Copy OK

Track 7

Filename J:\New Rips\Shirley Scott - Like Cozy (2001) [FLAC]\07 - Until The Real Thing Comes Along.wav

Pre-gap length 0:00:01.62

Peak level 98.7 % Extraction speed 7.7 X Track quality 100.0 % Test CRC 68B5C4F3 Copy CRC 68B5C4F3 Cannot be verified as accurate (confidence 1) [7AE52721], AccurateRip returned [176B0AAB] Copy OK

Track 8

Filename J:\New Rips\Shirley Scott - Like Cozy (2001) [FLAC]\08 - Lover Man.wav

Pre-gap length 0:00:01.30

Peak level 99.1 % Extraction speed 7.8 X Track quality 100.0 % Test CRC 463076CD Copy CRC 463076CD Cannot be verified as accurate (confidence 1) [061DDB80], AccurateRip returned [62D59D4E] Copy OK

Track 9

Filename J:\New Rips\Shirley Scott - Like Cozy (2001) [FLAC]\09 - Like Cozy.wav

Pre-gap length 0:00:02.50

Peak level 98.6 % Extraction speed 8.2 X Track quality 100.0 % Test CRC 83810415 Copy CRC 83810415 Cannot be verified as accurate (confidence 1) [64E781C6], AccurateRip returned [121E22AD] Copy OK

Track 10

Filename J:\New Rips\Shirley Scott - Like Cozy (2001) [FLAC]\10 - Little Girl Blue.wav

Pre-gap length 0:00:02.00

Peak level 99.4 % Extraction speed 8.7 X Track quality 100.0 % Test CRC 74DC0AB7 Copy CRC 74DC0AB7 Cannot be verified as accurate (confidence 1) [B549165B], AccurateRip returned [82B7E197] Copy OK

Track 11

Filename J:\New Rips\Shirley Scott - Like Cozy (2001) [FLAC]\11 - Laura.wav

Pre-gap length 0:00:01.55

Peak level 98.7 % Extraction speed 9.0 X Track quality 100.0 % Test CRC 955EA0F3 Copy CRC 955EA0F3 Cannot be verified as accurate (confidence 1) [398112F2], AccurateRip returned [967B4A09] Copy OK

Track 12

Filename J:\New Rips\Shirley Scott - Like Cozy (2001) [FLAC]\12 - You Do Something To Me.wav

Pre-gap length 0:00:01.32

Peak level 99.7 % Extraction speed 9.3 X Track quality 100.0 % Test CRC 49127EC1 Copy CRC 49127EC1 Cannot be verified as accurate (confidence 1) [1F9E749D], AccurateRip returned [76BD3C9D] Copy OK

Track 13

Filename J:\New Rips\Shirley Scott - Like Cozy (2001) [FLAC]\13 - Once In A While.wav

Pre-gap length 0:00:02.12

Peak level 99.4 % Extraction speed 9.5 X Track quality 100.0 % Test CRC D6952708 Copy CRC D6952708 Cannot be verified as accurate (confidence 1) [F5866869], AccurateRip returned [B7F55DE2] Copy OK

Track 14

Filename J:\New Rips\Shirley Scott - Like Cozy (2001) [FLAC]\14 - 'Deed I Do.wav

Pre-gap length 0:00:02.13

Peak level 100.0 % Extraction speed 9.6 X Track quality 100.0 % Test CRC 2C6EE833 Copy CRC 2C6EE833 Cannot be verified as accurate (confidence 1) [8157F8AA], AccurateRip returned [E9BB6E2B] Copy OK

Track 15

Filename J:\New Rips\Shirley Scott - Like Cozy (2001) [FLAC]\15 - More Than You Know.wav

Pre-gap length 0:00:02.05

Peak level 100.0 % Extraction speed 7.9 X Track quality 99.9 % Test CRC DC3066B4 Copy CRC DC3066B4 Cannot be verified as accurate (confidence 1) [BFCDCE80], AccurateRip returned [010A2EFA] Copy OK

Track 16

Filename J:\New Rips\Shirley Scott - Like Cozy (2001) [FLAC]\16 - My Heart Stood Still.wav

Pre-gap length 0:00:02.08

Peak level 99.2 % Extraction speed 9.9 X Track quality 100.0 % Test CRC 89A307C4 Copy CRC 89A307C4 Cannot be verified as accurate (confidence 1) [5127BF60], AccurateRip returned [C56CCE5E] Copy OK

No tracks could be verified as accurateYou may have a different pressing from the one(s) in the database

No errors occurred

End of status report

==== Log checksum 31FD9F55223EDF512E4E4BA67C9F3CDFDDA3531C3DB51D39B9BFCD28A1977BFC ====
 
REM GENRE JazzREM DATE 2001REM DISCID C710EB10REM COMMENT "ExactAudioCopy v1.0b1"PERFORMER "Shirley Scott"TITLE "Like Cozy"FILE "01 - Sweet Lorraine.flac" WAVE TRACK 01 AUDIO TITLE "Sweet Lorraine" PERFORMER "Shirley Scott" INDEX 01 00:00:00 TRACK 02 AUDIO TITLE "I Thought I'd Let You Know" PERFORMER "Shirley Scott" INDEX 00 04:32:17FILE "02 - I Thought I'd Let You Know.flac" WAVE INDEX 01 00:00:00 TRACK 03 AUDIO TITLE "I Should Care" PERFORMER "Shirley Scott" INDEX 00 04:20:70FILE "03 - I Should Care.flac" WAVE INDEX 01 00:00:00 TRACK 04 AUDIO TITLE "Spring Is Here" PERFORMER "Shirley Scott" INDEX 00 04:46:60FILE "04 - Spring Is Here.flac" WAVE INDEX 01 00:00:00 TRACK 05 AUDIO TITLE "I Didn't Know What Time It Was" PERFORMER "Shirley Scott" INDEX 00 04:45:43FILE "05 - I Didn't Know What Time It Was.flac" WAVE INDEX 01 00:00:00 TRACK 06 AUDIO TITLE "Gee Baby Ain't I Good To You" PERFORMER "Shirley Scott" INDEX 00 03:58:20FILE "06 - Gee Baby Ain't I Good To You.flac" WAVE INDEX 01 00:00:00 TRACK 07 AUDIO TITLE "Until The Real Thing Comes Along" PERFORMER "Shirley Scott" INDEX 00 04:14:50FILE "07 - Until The Real Thing Comes Along.flac" WAVE INDEX 01 00:00:00 TRACK 08 AUDIO TITLE "Lover Man" PERFORMER "Shirley Scott" INDEX 00 05:10:18FILE "08 - Lover Man.flac" WAVE INDEX 01 00:00:00 TRACK 09 AUDIO TITLE "Like Cozy" PERFORMER "Shirley Scott" INDEX 00 03:46:22FILE "09 - Like Cozy.flac" WAVE INDEX 01 00:00:00 TRACK 10 AUDIO TITLE "Little Girl Blue" PERFORMER "Shirley Scott" INDEX 00 04:10:13FILE "10 - Little Girl Blue.flac" WAVE INDEX 01 00:00:00 TRACK 11 AUDIO TITLE "Laura" PERFORMER "Shirley Scott" INDEX 00 05:00:17FILE "11 - Laura.flac" WAVE INDEX 01 00:00:00 TRACK 12 AUDIO TITLE "You Do Something To Me" PERFORMER "Shirley Scott" INDEX 00 05:00:33FILE "12 - You Do Something To Me.flac" WAVE INDEX 01 00:00:00 TRACK 13 AUDIO TITLE "Once In A While" PERFORMER "Shirley Scott" INDEX 00 05:16:58FILE "13 - Once In A While.flac" WAVE INDEX 01 00:00:00 TRACK 14 AUDIO TITLE "'Deed I Do" PERFORMER "Shirley Scott" INDEX 00 04:32:35FILE "14 - 'Deed I Do.flac" WAVE INDEX 01 00:00:00 TRACK 15 AUDIO TITLE "More Than You Know" PERFORMER "Shirley Scott" INDEX 00 04:12:10FILE "15 - More Than You Know.flac" WAVE INDEX 01 00:00:00 TRACK 16 AUDIO TITLE "My Heart Stood Still" PERFORMER "Shirley Scott" INDEX 00 04:06:47FILE "16 - My Heart Stood Still.flac" WAVE INDEX 01 00:00:00


Трекер:  [ 28-Янв-2012 07:30 ]

  

Скачать .torrent

Размер .torrent файла 18 KB


Размер: 412 MB
Хэш (hash) релиза: 9ea868d0446660504f4e3c99b33040ea85060b8a

Еще никто не оставлял запись к записи скачать торрент The Shirley Scott Trio — Like Cozy . Будь первым!

!Обратная связь