Скачать через торрент музыку Charlie Parker - Complete Savoy Masters бесплатно без регистрации torrent

Если у вас наблюдаются проблемы со скриншотами, переходом по ссылками, скачиванием торрентов - проблемы в блокировщике рекламы AdBlock. #хорошегоДня!


Статистика раздачи
Размер:  556 MB   |    Зарегистрирован:  5 лет 8 месяцев   |    .torrent скачан:  35 раз   |   
Раздают:  1  
   
Загрузка...
 
Автор Сообщение

Umakiro

avatar Umakiro


Charlie Parker / Complete Savoy Masters (2 CD)

Жанр: Bop
Год издания диска: 1999
Издатель (лейбл): Definitive Records
Номер по каталогу: DRCD11140
Аудиокодек: FLAC (*.flac)
Тип рипа: tracks+.cue
Битрейт аудио: lossless
Продолжительность: 62:40 / 67:02
Источник (релизер): Bezz
Наличие сканов в содержимом раздачи: да
CD 1
01. Tiny's Tempo (2:55)
02. I'll Always Love You (3:01)
03. Romance Without Finance (3:03)
04. Red Cross (3:08)
05. Warming Up A Riff (2:34)
06. Billie's Bounce (3:11)
07. Now's The Time (3:17)
08. Thriving On A Riff (2:57)
09. Meandering (3:18)
10. Ko-Ko (2:55)
11. Donna Lee (2:34)
12. Chasin' The Bird (2:46)
13. Cheryl (3:00)
14. Buzzy (2:31)
15. Milestones (2:37)
16. Little Willie Leaps (2:53)
17. Half Nelson (2:46)
18. Sippin' At Bells (2:26)
19. Another Hair-Do (2:41)
20. Blue Bird (2:50)
21. Klaunstance (2:45)
22. Bird Gets The Worm (2:33)

CD 2
01. Barbados (2:31)
02. Ah-Leu-Cha (2:56)
03. Constellation (2:29)
04. Parker's Mood (3:05)
05. Perhaps (2:36)
06. Marmaduke (2:45)
07. Steeplechase (3:07)
08. Merry-Go-Round (2:28)
09. Groovin' High (2:45)
10. All The Things You Are (2:51)
11. Dizzy Atmosphere (2:50)
12. Dizzy's Boogie (3:13)
13. Flat Foot Floogie (2:35)
14. Poppity Pop (3:01)
15. Slim's Jam (3:20)
16. A Night In Tunisia (Carnegie) (5:13)
17. Dizzy Atmosphere (Carnegie) (4:04)
18. Groovin' High (Carnegie) (5:16)
19. Confirmation (Carnegie) (5:40)
20. Koko (Carnegie) (4:15)
 
 
Exact Audio Copy V1.0 beta 2 from 29. April 2011

EAC extraction logfile from 10. November 2011, 0:32

Charlie Parker / Complete Savoy Masters (disc 1)

Used drive : PLEXTOR DVDR PX-810SA Adapter: 2 ID: 0

Read mode : SecureUtilize accurate stream : YesDefeat audio cache : YesMake use of C2 pointers : No

Read offset correction : 48Overread into Lead-In and Lead-Out : NoFill up missing offset samples with silence : YesDelete leading and trailing silent blocks : NoNull samples used in CRC calculations : YesUsed interface : Native Win32 interface for Win NT & 2000Gap handling : Appended to previous track

Used output format : User Defined EncoderSelected bitrate : 256 kBit/sQuality : HighAdd ID3 tag : NoCommand line compressor : C:\Archivos de programa\Exact Audio Copy\Flac\flac.exeAdditional command line options : -8 -V -T "ARTIST=%artist%" -T "TITLE=%title%" -T "ALBUM=%albumtitle%" -T "DATE=%year%" -T "TRACKNUMBER=%tracknr%" -T "TOTALTRACKS=%numtracks%" -T "GENRE=%genre%" -T "ALBUMARTIST=%albumartist%" -T "ALBUM ARTIST=%albumartist%

TOC of the extracted CD

Track | Start | Length | Start sector | End sector --------------------------------------------------------- 1 | 0:00.00 | 2:55.22 | 0 | 13146 2 | 2:55.22 | 3:00.63 | 13147 | 26709 3 | 5:56.10 | 3:03.30 | 26710 | 40464 4 | 8:59.40 | 3:08.20 | 40465 | 54584 5 | 12:07.60 | 2:33.52 | 54585 | 66111 6 | 14:41.37 | 3:11.28 | 66112 | 80464 7 | 17:52.65 | 3:16.45 | 80465 | 95209 8 | 21:09.35 | 2:57.02 | 95210 | 108486 9 | 24:06.37 | 3:17.65 | 108487 | 123326 10 | 27:24.27 | 2:55.05 | 123327 | 136456 11 | 30:19.32 | 2:34.28 | 136457 | 148034 12 | 32:53.60 | 2:45.42 | 148035 | 160451 13 | 35:39.27 | 2:59.50 | 160452 | 173926 14 | 38:39.02 | 2:30.65 | 173927 | 185241 15 | 41:09.67 | 2:37.30 | 185242 | 197046 16 | 43:47.22 | 2:52.55 | 197047 | 210001 17 | 46:40.02 | 2:45.58 | 210002 | 222434 18 | 49:25.60 | 2:25.42 | 222435 | 233351 19 | 51:51.27 | 2:40.43 | 233352 | 245394 20 | 54:31.70 | 2:50.00 | 245395 | 258144 21 | 57:21.70 | 2:44.55 | 258145 | 270499 22 | 60:06.50 | 2:33.15 | 270500 | 281989

Track 1

Filename C:\audio-rips\01 - Tiny's Tempo.wav

Pre-gap length 0:00:02.00

Peak level 96.0 % Extraction speed 3.5 X Track quality 99.9 % Test CRC 5125F1E8 Copy CRC 5125F1E8 Accurately ripped (confidence 5) [D93D049E] (AR v1) Copy OK

Track 2

Filename C:\audio-rips\02 - I'll Always Love You.wav

Pre-gap length 0:00:01.67

Peak level 90.2 % Extraction speed 4.5 X Track quality 100.0 % Test CRC C43FB8E5 Copy CRC C43FB8E5 Accurately ripped (confidence 5) [6D23CD3E] (AR v1) Copy OK

Track 3

Filename C:\audio-rips\03 - Romance Without Finance.wav

Pre-gap length 0:00:01.48

Peak level 95.2 % Extraction speed 4.8 X Track quality 100.0 % Test CRC A05C7075 Copy CRC A05C7075 Accurately ripped (confidence 5) [E639DB0B] (AR v1) Copy OK

Track 4

Filename C:\audio-rips\04 - Red Cross.wav

Pre-gap length 0:00:01.48

Peak level 97.3 % Extraction speed 5.0 X Track quality 100.0 % Test CRC 64470694 Copy CRC 64470694 Accurately ripped (confidence 5) [8B6F10CA] (AR v1) Copy OK

Track 5

Filename C:\audio-rips\05 - Warming Up a Riff.wav

Pre-gap length 0:00:01.48

Peak level 93.8 % Extraction speed 4.3 X Track quality 99.9 % Test CRC D704B7ED Copy CRC D704B7ED Accurately ripped (confidence 5) [33C42660] (AR v1) Copy OK

Track 6

Filename C:\audio-rips\06 - Billie's Bounce.wav

Pre-gap length 0:00:01.62

Peak level 93.5 % Extraction speed 5.7 X Track quality 100.0 % Test CRC C544DECD Copy CRC C544DECD Accurately ripped (confidence 5) [82F58315] (AR v1) Copy OK

Track 7

Filename C:\audio-rips\07 - Now's the Time.wav

Pre-gap length 0:00:01.60

Peak level 99.7 % Extraction speed 5.9 X Track quality 100.0 % Test CRC C2BE7E34 Copy CRC C2BE7E34 Accurately ripped (confidence 5) [0DD3C132] (AR v1) Copy OK

Track 8

Filename C:\audio-rips\08 - Thriving on a Riff.wav

Pre-gap length 0:00:01.60

Peak level 90.3 % Extraction speed 5.9 X Track quality 100.0 % Test CRC B81F014A Copy CRC B81F014A Accurately ripped (confidence 5) [330A9B31] (AR v1) Copy OK

Track 9

Filename C:\audio-rips\09 - Meandering.wav

Pre-gap length 0:00:01.62

Peak level 94.8 % Extraction speed 5.5 X Track quality 99.9 % Test CRC A882E8BB Copy CRC A882E8BB Accurately ripped (confidence 5) [E3C3BEBA] (AR v1) Copy OK

Track 10

Filename C:\audio-rips\10 - Ko-Ko.wav

Pre-gap length 0:00:01.45

Peak level 95.6 % Extraction speed 6.4 X Track quality 100.0 % Test CRC 220AB0EF Copy CRC 220AB0EF Accurately ripped (confidence 5) [DEF1C8BE] (AR v1) Copy OK

Track 11

Filename C:\audio-rips\11 - Donna Lee.wav

Pre-gap length 0:00:01.57

Peak level 99.1 % Extraction speed 5.4 X Track quality 99.9 % Test CRC A13F814C Copy CRC A13F814C Accurately ripped (confidence 5) [DF3D718F] (AR v1) Copy OK

Track 12

Filename C:\audio-rips\12 - Chasin' the Bird.wav

Pre-gap length 0:00:01.63

Peak level 98.9 % Extraction speed 6.8 X Track quality 100.0 % Test CRC 7E638E81 Copy CRC 7E638E81 Accurately ripped (confidence 5) [CC217343] (AR v1) Copy OK

Track 13

Filename C:\audio-rips\13 - Cheryl.wav

Pre-gap length 0:00:01.40

Peak level 93.9 % Extraction speed 6.9 X Track quality 100.0 % Test CRC B03E540B Copy CRC B03E540B Accurately ripped (confidence 5) [16390E68] (AR v1) Copy OK

Track 14

Filename C:\audio-rips\14 - Buzzy.wav

Pre-gap length 0:00:01.55

Peak level 99.2 % Extraction speed 6.8 X Track quality 100.0 % Test CRC A412913E Copy CRC A412913E Accurately ripped (confidence 5) [0DA65BB2] (AR v1) Copy OK

Track 15

Filename C:\audio-rips\15 - Milestones.wav

Pre-gap length 0:00:01.42

Peak level 93.7 % Extraction speed 7.0 X Track quality 100.0 % Test CRC E19FED02 Copy CRC E19FED02 Accurately ripped (confidence 5) [72F13C8F] (AR v1) Copy OK

Track 16

Filename C:\audio-rips\16 - Little Willie Leaps.wav

Pre-gap length 0:00:01.40

Peak level 97.6 % Extraction speed 6.4 X Track quality 100.0 % Test CRC 178196F0 Copy CRC 178196F0 Accurately ripped (confidence 5) [24B537FB] (AR v1) Copy OK

Track 17

Filename C:\audio-rips\17 - Half Nelson.wav

Pre-gap length 0:00:01.62

Peak level 98.9 % Extraction speed 4.5 X Track quality 100.0 % Test CRC 0F6F5495 Copy CRC 0F6F5495 Accurately ripped (confidence 5) [6A0603F4] (AR v1) Copy OK

Track 18

Filename C:\audio-rips\18 - Sippin' At Bells.wav

Pre-gap length 0:00:01.53

Peak level 98.6 % Extraction speed 4.4 X Track quality 100.0 % Test CRC 9EAA34DC Copy CRC 9EAA34DC Accurately ripped (confidence 5) [22370B8B] (AR v1) Copy OK

Track 19

Filename C:\audio-rips\19 - Another Hair-Do.wav

Pre-gap length 0:00:01.57

Peak level 99.0 % Extraction speed 4.6 X Track quality 100.0 % Test CRC 7A676B91 Copy CRC 7A676B91 Accurately ripped (confidence 5) [89470E5B] (AR v1) Copy OK

Track 20

Filename C:\audio-rips\20 - Blue Bird.wav

Pre-gap length 0:00:01.58

Peak level 100.0 % Extraction speed 4.0 X Track quality 99.9 % Test CRC 4EB39B5D Copy CRC 4EB39B5D Accurately ripped (confidence 5) [8BDECB8F] (AR v1) Copy OK

Track 21

Filename C:\audio-rips\21 - Klaunstance.wav

Pre-gap length 0:00:01.68

Peak level 90.2 % Extraction speed 4.8 X Track quality 100.0 % Test CRC 4FC90955 Copy CRC 4FC90955 Accurately ripped (confidence 5) [872EF07E] (AR v1) Copy OK

Track 22

Filename C:\audio-rips\22 - Bird Gets the Worm.wav

Pre-gap length 0:00:01.53

Peak level 95.4 % Extraction speed 4.7 X Track quality 100.0 % Test CRC 219FE64B Copy CRC 219FE64B Accurately ripped (confidence 5) [617AEBC2] (AR v1) Copy OK

All tracks accurately ripped

No errors occurred

End of status report

==== Log checksum 7B35CBBAAB838004046855BD0A3BB4E82E298B41150FC9118CDDD8557E75C1EA ====
 
REM GENRE JazzREM DATE 1999REM DISCID 370EAF16REM COMMENT "ExactAudioCopy v1.0b2"PERFORMER "Charlie Parker"TITLE "Complete Savoy Masters (disc 1)"FILE "01 - Tiny's Tempo.wav" WAVE TRACK 01 AUDIO TITLE "Tiny's Tempo" PERFORMER "Charlie Parker" INDEX 01 00:00:00 TRACK 02 AUDIO TITLE "I'll Always Love You" PERFORMER "Charlie Parker" INDEX 00 02:53:30FILE "02 - I'll Always Love You.wav" WAVE INDEX 01 00:00:00 TRACK 03 AUDIO TITLE "Romance Without Finance" PERFORMER "Charlie Parker" INDEX 00 02:59:15FILE "03 - Romance Without Finance.wav" WAVE INDEX 01 00:00:00 TRACK 04 AUDIO TITLE "Red Cross" PERFORMER "Charlie Parker" INDEX 00 03:01:57FILE "04 - Red Cross.wav" WAVE INDEX 01 00:00:00 TRACK 05 AUDIO TITLE "Warming Up a Riff" PERFORMER "Charlie Parker" INDEX 00 03:06:47FILE "05 - Warming Up a Riff.wav" WAVE INDEX 01 00:00:00 TRACK 06 AUDIO TITLE "Billie's Bounce" PERFORMER "Charlie Parker" INDEX 00 02:31:65FILE "06 - Billie's Bounce.wav" WAVE INDEX 01 00:00:00 TRACK 07 AUDIO TITLE "Now's the Time" PERFORMER "Charlie Parker" INDEX 00 03:09:43FILE "07 - Now's the Time.wav" WAVE INDEX 01 00:00:00 TRACK 08 AUDIO TITLE "Thriving on a Riff" PERFORMER "Charlie Parker" INDEX 00 03:14:60FILE "08 - Thriving on a Riff.wav" WAVE INDEX 01 00:00:00 TRACK 09 AUDIO TITLE "Meandering" PERFORMER "Charlie Parker" INDEX 00 02:55:15FILE "09 - Meandering.wav" WAVE INDEX 01 00:00:00 TRACK 10 AUDIO TITLE "Ko-Ko" PERFORMER "Charlie Parker" INDEX 00 03:16:20FILE "10 - Ko-Ko.wav" WAVE INDEX 01 00:00:00 TRACK 11 AUDIO TITLE "Donna Lee" PERFORMER "Charlie Parker" INDEX 00 02:53:23FILE "11 - Donna Lee.wav" WAVE INDEX 01 00:00:00 TRACK 12 AUDIO TITLE "Chasin' the Bird" PERFORMER "Charlie Parker" INDEX 00 02:32:40FILE "12 - Chasin' the Bird.wav" WAVE INDEX 01 00:00:00 TRACK 13 AUDIO TITLE "Cheryl" PERFORMER "Charlie Parker" INDEX 00 02:44:02FILE "13 - Cheryl.wav" WAVE INDEX 01 00:00:00 TRACK 14 AUDIO TITLE "Buzzy" PERFORMER "Charlie Parker" INDEX 00 02:57:70FILE "14 - Buzzy.wav" WAVE INDEX 01 00:00:00 TRACK 15 AUDIO TITLE "Milestones" PERFORMER "Charlie Parker" INDEX 00 02:29:23FILE "15 - Milestones.wav" WAVE INDEX 01 00:00:00 TRACK 16 AUDIO TITLE "Little Willie Leaps" PERFORMER "Charlie Parker" INDEX 00 02:35:65FILE "16 - Little Willie Leaps.wav" WAVE INDEX 01 00:00:00 TRACK 17 AUDIO TITLE "Half Nelson" PERFORMER "Charlie Parker" INDEX 00 02:50:68FILE "17 - Half Nelson.wav" WAVE INDEX 01 00:00:00 TRACK 18 AUDIO TITLE "Sippin' At Bells" PERFORMER "Charlie Parker" INDEX 00 02:44:05FILE "18 - Sippin' At Bells.wav" WAVE INDEX 01 00:00:00 TRACK 19 AUDIO TITLE "Another Hair-Do" PERFORMER "Charlie Parker" INDEX 00 02:23:60FILE "19 - Another Hair-Do.wav" WAVE INDEX 01 00:00:00 TRACK 20 AUDIO TITLE "Blue Bird" PERFORMER "Charlie Parker" INDEX 00 02:38:60FILE "20 - Blue Bird.wav" WAVE INDEX 01 00:00:00 TRACK 21 AUDIO TITLE "Klaunstance" PERFORMER "Charlie Parker" INDEX 00 02:48:07FILE "21 - Klaunstance.wav" WAVE INDEX 01 00:00:00 TRACK 22 AUDIO TITLE "Bird Gets the Worm" PERFORMER "Charlie Parker" INDEX 00 02:43:02FILE "22 - Bird Gets the Worm.wav" WAVE INDEX 01 00:00:00
 
Exact Audio Copy V1.0 beta 2 from 29. April 2011

EAC extraction logfile from 10. November 2011, 0:58

Charlie Parker / Complete Savoy Masters (disc 2)

Used drive : PLEXTOR DVDR PX-810SA Adapter: 2 ID: 0

Read mode : SecureUtilize accurate stream : YesDefeat audio cache : YesMake use of C2 pointers : No

Read offset correction : 48Overread into Lead-In and Lead-Out : NoFill up missing offset samples with silence : YesDelete leading and trailing silent blocks : NoNull samples used in CRC calculations : YesUsed interface : Native Win32 interface for Win NT & 2000Gap handling : Appended to previous track

Used output format : User Defined EncoderSelected bitrate : 256 kBit/sQuality : HighAdd ID3 tag : NoCommand line compressor : C:\Archivos de programa\Exact Audio Copy\Flac\flac.exeAdditional command line options : -8 -V -T "ARTIST=%artist%" -T "TITLE=%title%" -T "ALBUM=%albumtitle%" -T "DATE=%year%" -T "TRACKNUMBER=%tracknr%" -T "TOTALTRACKS=%numtracks%" -T "GENRE=%genre%" -T "ALBUMARTIST=%albumartist%" -T "ALBUM ARTIST=%albumartist%

TOC of the extracted CD

Track | Start | Length | Start sector | End sector --------------------------------------------------------- 1 | 0:00.00 | 2:30.67 | 0 | 11316 2 | 2:30.67 | 2:56.23 | 11317 | 24539 3 | 5:27.15 | 2:29.02 | 24540 | 35716 4 | 7:56.17 | 3:05.28 | 35717 | 49619 5 | 11:01.45 | 2:36.25 | 49620 | 61344 6 | 13:37.70 | 2:45.20 | 61345 | 73739 7 | 16:23.15 | 3:06.70 | 73740 | 87759 8 | 19:30.10 | 2:28.15 | 87760 | 98874 9 | 21:58.25 | 2:44.42 | 98875 | 111216 10 | 24:42.67 | 2:51.25 | 111217 | 124066 11 | 27:34.17 | 2:50.25 | 124067 | 136841 12 | 30:24.42 | 3:12.63 | 136842 | 151304 13 | 33:37.30 | 2:35.07 | 151305 | 162936 14 | 36:12.37 | 3:01.00 | 162937 | 176511 15 | 39:13.37 | 3:20.35 | 176512 | 191546 16 | 42:33.72 | 5:13.25 | 191547 | 215046 17 | 47:47.22 | 4:03.53 | 215047 | 233324 18 | 51:51.00 | 5:15.72 | 233325 | 257021 19 | 57:06.72 | 5:40.00 | 257022 | 282521 20 | 62:46.72 | 4:15.20 | 282522 | 301666

Track 1

Filename C:\audio-rips\01 - Barbados.wav

Pre-gap length 0:00:02.00

Peak level 90.9 % Extraction speed 3.9 X Track quality 100.0 % Test CRC 3349023C Copy CRC 3349023C Accurately ripped (confidence 5) [E923218C] (AR v1) Copy OK

Track 2

Filename C:\audio-rips\02 - Ah-Leu-Cha.wav

Pre-gap length 0:00:02.50

Peak level 98.9 % Extraction speed 3.7 X Track quality 99.9 % Test CRC B0F7A883 Copy CRC B0F7A883 Accurately ripped (confidence 5) [EDACCB11] (AR v1) Copy OK

Track 3

Filename C:\audio-rips\03 - Constellation.wav

Pre-gap length 0:00:02.50

Peak level 97.3 % Extraction speed 3.8 X Track quality 99.9 % Test CRC 5B1CBC04 Copy CRC 5B1CBC04 Accurately ripped (confidence 5) [EB687A53] (AR v1) Copy OK

Track 4

Filename C:\audio-rips\04 - Parker's Mood.wav

Pre-gap length 0:00:02.52

Peak level 95.1 % Extraction speed 5.0 X Track quality 100.0 % Test CRC 326913C4 Copy CRC 326913C4 Accurately ripped (confidence 5) [14216E5B] (AR v1) Copy OK

Track 5

Filename C:\audio-rips\05 - Perhaps.wav

Pre-gap length 0:00:02.50

Peak level 92.6 % Extraction speed 4.2 X Track quality 99.9 % Test CRC 6A523ED6 Copy CRC 6A523ED6 Accurately ripped (confidence 5) [7930BD3E] (AR v1) Copy OK

Track 6

Filename C:\audio-rips\06 - Marmaduke.wav

Pre-gap length 0:00:02.45

Peak level 99.1 % Extraction speed 5.3 X Track quality 100.0 % Test CRC 74077D9E Copy CRC 74077D9E Accurately ripped (confidence 5) [F1B540A9] (AR v1) Copy OK

Track 7

Filename C:\audio-rips\07 - Steeplechase.wav

Pre-gap length 0:00:02.50

Peak level 90.8 % Extraction speed 5.6 X Track quality 100.0 % Test CRC F982CC86 Copy CRC F982CC86 Accurately ripped (confidence 5) [68074D8B] (AR v1) Copy OK

Track 8

Filename C:\audio-rips\08 - Merry-Go-Round.wav

Pre-gap length 0:00:02.53

Peak level 97.6 % Extraction speed 5.6 X Track quality 100.0 % Test CRC A1E82369 Copy CRC A1E82369 Accurately ripped (confidence 5) [FCE016D9] (AR v1) Copy OK

Track 9

Filename C:\audio-rips\09 - Groovin' High.wav

Pre-gap length 0:00:02.45

Peak level 89.6 % Extraction speed 5.9 X Track quality 100.0 % Test CRC 75FD18FB Copy CRC 75FD18FB Accurately ripped (confidence 5) [B54C4CFA] (AR v1) Copy OK

Track 10

Filename C:\audio-rips\10 - All the Things You Are.wav

Pre-gap length 0:00:02.50

Peak level 96.2 % Extraction speed 5.3 X Track quality 99.9 % Test CRC 502AE2E7 Copy CRC 502AE2E7 Accurately ripped (confidence 5) [0211BF53] (AR v1) Copy OK

Track 11

Filename C:\audio-rips\11 - Dizzy Atmosphere.wav

Pre-gap length 0:00:02.52

Peak level 97.1 % Extraction speed 5.4 X Track quality 99.9 % Test CRC F43DFB40 Copy CRC F43DFB40 Accurately ripped (confidence 5) [15D9772A] (AR v1) Copy OK

Track 12

Filename C:\audio-rips\12 - Dizzy's Boogie.wav

Pre-gap length 0:00:02.40

Peak level 94.8 % Extraction speed 6.7 X Track quality 100.0 % Test CRC 89C19B47 Copy CRC 89C19B47 Accurately ripped (confidence 5) [C97A8F24] (AR v1) Copy OK

Track 13

Filename C:\audio-rips\13 - Flat Foot Floogie.wav

Pre-gap length 0:00:02.50

Peak level 99.1 % Extraction speed 6.6 X Track quality 100.0 % Test CRC C230E674 Copy CRC C230E674 Accurately ripped (confidence 5) [E7BC8CE6] (AR v1) Copy OK

Track 14

Filename C:\audio-rips\14 - Poppity Pop.wav

Pre-gap length 0:00:02.50

Peak level 98.9 % Extraction speed 6.9 X Track quality 100.0 % Test CRC 3701C45A Copy CRC 3701C45A Accurately ripped (confidence 5) [68079A32] (AR v1) Copy OK

Track 15

Filename C:\audio-rips\15 - Slim's Jam.wav

Pre-gap length 0:00:02.52

Peak level 98.8 % Extraction speed 7.2 X Track quality 100.0 % Test CRC 59B63FAF Copy CRC 59B63FAF Accurately ripped (confidence 5) [9DD0E6F3] (AR v1) Copy OK

Track 16

Filename C:\audio-rips\16 - A Night in Tunisia (Carnegie).wav

Pre-gap length 0:00:02.47

Peak level 96.7 % Extraction speed 8.0 X Track quality 100.0 % Test CRC A5AAB076 Copy CRC A5AAB076 Accurately ripped (confidence 5) [22839C92] (AR v1) Copy OK

Track 17

Filename C:\audio-rips\17 - Dizzy Atmosphere (Carnegie).wav

Pre-gap length 0:00:02.50

Peak level 96.5 % Extraction speed 7.1 X Track quality 99.9 % Test CRC 28503F7C Copy CRC 28503F7C Accurately ripped (confidence 5) [E0C5D3E4] (AR v1) Copy OK

Track 18

Filename C:\audio-rips\18 - Groovin' High (Carnegie).wav

Pre-gap length 0:00:02.50

Peak level 93.5 % Extraction speed 8.5 X Track quality 100.0 % Test CRC 9E49688B Copy CRC 9E49688B Accurately ripped (confidence 5) [DA99666C] (AR v1) Copy OK

Track 19

Filename C:\audio-rips\19 - Confirmation (Carnegie).wav

Pre-gap length 0:00:02.47

Peak level 94.0 % Extraction speed 8.8 X Track quality 100.0 % Test CRC A988C6A0 Copy CRC A988C6A0 Accurately ripped (confidence 5) [CCEAE6F3] (AR v1) Copy OK

Track 20

Filename C:\audio-rips\20 - Koko (Carnegie).wav

Pre-gap length 0:00:02.47

Peak level 97.8 % Extraction speed 8.7 X Track quality 100.0 % Test CRC 1C82BC7F Copy CRC 1C82BC7F Accurately ripped (confidence 5) [FA5E992E] (AR v1) Copy OK

All tracks accurately ripped

No errors occurred

End of status report

==== Log checksum 58C1B96093DCA963EA6C8836216F4B20BEEE9C7DA75C663E62EDF3C00C39B804 ====
 
REM GENRE JazzREM DATE 1999REM DISCID 2C0FB614REM COMMENT "ExactAudioCopy v1.0b2"PERFORMER "Charlie Parker"TITLE "Complete Savoy Masters (disc 2)"FILE "01 - Barbados.wav" WAVE TRACK 01 AUDIO TITLE "Barbados" PERFORMER "Charlie Parker" INDEX 01 00:00:00 TRACK 02 AUDIO TITLE "Ah-Leu-Cha" PERFORMER "Charlie Parker" INDEX 00 02:28:17FILE "02 - Ah-Leu-Cha.wav" WAVE INDEX 01 00:00:00 TRACK 03 AUDIO TITLE "Constellation" PERFORMER "Charlie Parker" INDEX 00 02:53:48FILE "03 - Constellation.wav" WAVE INDEX 01 00:00:00 TRACK 04 AUDIO TITLE "Parker's Mood" PERFORMER "Charlie Parker" INDEX 00 02:26:25FILE "04 - Parker's Mood.wav" WAVE INDEX 01 00:00:00 TRACK 05 AUDIO TITLE "Perhaps" PERFORMER "Charlie Parker" INDEX 00 03:02:53FILE "05 - Perhaps.wav" WAVE INDEX 01 00:00:00 TRACK 06 AUDIO TITLE "Marmaduke" PERFORMER "Charlie Parker" INDEX 00 02:33:55FILE "06 - Marmaduke.wav" WAVE INDEX 01 00:00:00 TRACK 07 AUDIO TITLE "Steeplechase" PERFORMER "Charlie Parker" INDEX 00 02:42:45FILE "07 - Steeplechase.wav" WAVE INDEX 01 00:00:00 TRACK 08 AUDIO TITLE "Merry-Go-Round" PERFORMER "Charlie Parker" INDEX 00 03:04:17FILE "08 - Merry-Go-Round.wav" WAVE INDEX 01 00:00:00 TRACK 09 AUDIO TITLE "Groovin' High" PERFORMER "Charlie Parker" INDEX 00 02:25:45FILE "09 - Groovin' High.wav" WAVE INDEX 01 00:00:00 TRACK 10 AUDIO TITLE "All the Things You Are" PERFORMER "Charlie Parker" INDEX 00 02:41:67FILE "10 - All the Things You Are.wav" WAVE INDEX 01 00:00:00 TRACK 11 AUDIO TITLE "Dizzy Atmosphere" PERFORMER "Charlie Parker" INDEX 00 02:48:48FILE "11 - Dizzy Atmosphere.wav" WAVE INDEX 01 00:00:00 TRACK 12 AUDIO TITLE "Dizzy's Boogie" PERFORMER "Charlie Parker" INDEX 00 02:47:60FILE "12 - Dizzy's Boogie.wav" WAVE INDEX 01 00:00:00 TRACK 13 AUDIO TITLE "Flat Foot Floogie" PERFORMER "Charlie Parker" INDEX 00 03:10:13FILE "13 - Flat Foot Floogie.wav" WAVE INDEX 01 00:00:00 TRACK 14 AUDIO TITLE "Poppity Pop" PERFORMER "Charlie Parker" INDEX 00 02:32:32FILE "14 - Poppity Pop.wav" WAVE INDEX 01 00:00:00 TRACK 15 AUDIO TITLE "Slim's Jam" PERFORMER "Charlie Parker" INDEX 00 02:58:23FILE "15 - Slim's Jam.wav" WAVE INDEX 01 00:00:00 TRACK 16 AUDIO TITLE "A Night in Tunisia (Carnegie)" PERFORMER "Charlie Parker" INDEX 00 03:17:63FILE "16 - A Night in Tunisia (Carnegie).wav" WAVE INDEX 01 00:00:00 TRACK 17 AUDIO TITLE "Dizzy Atmosphere (Carnegie)" PERFORMER "Charlie Parker" INDEX 00 05:10:50FILE "17 - Dizzy Atmosphere (Carnegie).wav" WAVE INDEX 01 00:00:00 TRACK 18 AUDIO TITLE "Groovin' High (Carnegie)" PERFORMER "Charlie Parker" INDEX 00 04:01:03FILE "18 - Groovin' High (Carnegie).wav" WAVE INDEX 01 00:00:00 TRACK 19 AUDIO TITLE "Confirmation (Carnegie)" PERFORMER "Charlie Parker" INDEX 00 05:13:25FILE "19 - Confirmation (Carnegie).wav" WAVE INDEX 01 00:00:00 TRACK 20 AUDIO TITLE "Koko (Carnegie)" PERFORMER "Charlie Parker" INDEX 00 05:37:28FILE "20 - Koko (Carnegie).wav" WAVE INDEX 01 00:00:00


Трекер:  [ 28-Янв-2012 07:29 ]

  

Скачать .torrent

Размер .torrent файла 14 KB


Размер: 556 MB
Хэш (hash) релиза: 9f68d0b49d4607635be99fc2f86a993454a5e482

Еще никто не оставлял запись к записи скачать торрент Charlie Parker - Complete Savoy Masters . Будь первым!

!Обратная связь