Скачать через торрент музыку VA - The Many Faces Of Naxos Jazz - 1999, FLAC бесплатно без регистрации torrent

Если у вас наблюдаются проблемы со скриншотами, переходом по ссылками, скачиванием торрентов - проблемы в блокировщике рекламы AdBlock. #хорошегоДня!


Статистика раздачи
Размер:  504 MB   |    Зарегистрирован:  5 лет 8 месяцев   |    .torrent скачан:  34 раза   |   
Раздают:  1  
   
Загрузка...
 
Автор Сообщение

Umakiro

avatar Umakiro


Various — The Many Faces Of Naxos Jazz

Жанр: Bop, Vocal Jazz, Big Band
Год издания диска: 1999
Издатель (лейбл): Naxos
Номер по каталогу: 86040-2
Аудиокодек: FLAC (*.flac)
Тип рипа: tracks+.cue
Битрейт аудио: lossless
Продолжительность: 74:51
Риппер: Oceandrop
Наличие сканов в содержимом раздачи: да

Треклист:
01. I Love You (Gail Wynters) (4:02)
02. One Minute For Myself (Tolvan Big Band) (6:37)
03. All Blues (UMO Jazz Orchstra) (5:05)
04. Master Power (Clifford Adams) (5:11)
05. Five'll Getcha (Mike Nock Quintet) (7:06)
06. Mountain Mama (Donny McCaslin) (6:10)
07. Brother Bass (Niko Schauble) (7:47)
08. Rain Check (Joe Temperley) (6:16)
09. Into The Dark (Los Angeles Jazz Quartet) (6:44)
10. The Nine Beat Boogie (Larry Karush) (4:18)
11. 3rd Line For Shorter (Lars Moller) (7:14)
12. El Bahdja (Chris Cody Coalition) (8:19)
 
 
Exact Audio Copy V1.0 beta 1 from 15. November 2010

EAC extraction logfile from 26. November 2011, 17:09

Various / The Many Faces of Naxos Jazz {Naxos 86040-2}

Used drive : ASUS DRW-1608P3S Adapter: 0 ID: 1

Read mode : SecureUtilize accurate stream : YesDefeat audio cache : YesMake use of C2 pointers : No

Read offset correction : 48Overread into Lead-In and Lead-Out : NoFill up missing offset samples with silence : YesDelete leading and trailing silent blocks : NoNull samples used in CRC calculations : YesUsed interface : Native Win32 interface for Win NT & 2000Gap handling : Appended to previous track

Used output format : Internal WAV RoutinesSample format : 44.100 Hz; 16 Bit; Stereo

TOC of the extracted CD

Track | Start | Length | Start sector | End sector --------------------------------------------------------- 1 | 0:00.00 | 4:01.63 | 0 | 18137 2 | 4:01.63 | 6:37.32 | 18138 | 47944 3 | 10:39.20 | 5:05.15 | 47945 | 70834 4 | 15:44.35 | 5:10.70 | 70835 | 94154 5 | 20:55.30 | 7:06.08 | 94155 | 126112 6 | 28:01.38 | 6:10.00 | 126113 | 153862 7 | 34:11.38 | 7:47.22 | 153863 | 188909 8 | 41:58.60 | 6:16.35 | 188910 | 217144 9 | 48:15.20 | 6:44.33 | 217145 | 247477 10 | 54:59.53 | 4:17.57 | 247478 | 266809 11 | 59:17.35 | 7:14.30 | 266810 | 299389 12 | 66:31.65 | 8:18.65 | 299390 | 336804

Track 1

Filename H:\EAC@Oceandrop rips\[Various Artists] - The Many Faces of Naxos Jazz {Naxos}\01 - I Love You.wav

Pre-gap length 0:00:02.00

Peak level 100.0 % Extraction speed 4.8 X Track quality 100.0 % Test CRC 9433CAB7 Copy CRC 9433CAB7 Accurately ripped (confidence 2) [8802894C] Copy OK

Track 2

Filename H:\EAC@Oceandrop rips\[Various Artists] - The Many Faces of Naxos Jazz {Naxos}\02 - One Minute for Myself.wav

Pre-gap length 0:00:03.05

Peak level 100.0 % Extraction speed 5.7 X Track quality 100.0 % Test CRC 83B53FB9 Copy CRC 83B53FB9 Accurately ripped (confidence 2) [22E2427B] Copy OK

Track 3

Filename H:\EAC@Oceandrop rips\[Various Artists] - The Many Faces of Naxos Jazz {Naxos}\03 - All Blues.wav

Pre-gap length 0:00:02.57

Peak level 100.0 % Extraction speed 6.1 X Track quality 100.0 % Test CRC 18E108F6 Copy CRC 18E108F6 Accurately ripped (confidence 2) [BE52C033] Copy OK

Track 4

Filename H:\EAC@Oceandrop rips\[Various Artists] - The Many Faces of Naxos Jazz {Naxos}\04 - Master Power.wav

Pre-gap length 0:00:02.52

Peak level 100.0 % Extraction speed 6.6 X Track quality 100.0 % Test CRC CCBC2288 Copy CRC CCBC2288 Accurately ripped (confidence 2) [ED815176] Copy OK

Track 5

Filename H:\EAC@Oceandrop rips\[Various Artists] - The Many Faces of Naxos Jazz {Naxos}\05 - Five'll Getcha.wav

Pre-gap length 0:00:03.17

Peak level 100.0 % Extraction speed 7.3 X Track quality 100.0 % Test CRC 8DEE3FD4 Copy CRC 8DEE3FD4 Accurately ripped (confidence 2) [26B868D5] Copy OK

Track 6

Filename H:\EAC@Oceandrop rips\[Various Artists] - The Many Faces of Naxos Jazz {Naxos}\06 - Mountain Mama.wav

Pre-gap length 0:00:03.18

Peak level 100.0 % Extraction speed 7.7 X Track quality 100.0 % Test CRC CDB7A171 Copy CRC CDB7A171 Accurately ripped (confidence 2) [15606CAE] Copy OK

Track 7

Filename H:\EAC@Oceandrop rips\[Various Artists] - The Many Faces of Naxos Jazz {Naxos}\07 - Brother Bass.wav

Pre-gap length 0:00:03.65

Peak level 100.0 % Extraction speed 8.3 X Track quality 100.0 % Test CRC 5FAFA9C0 Copy CRC 5FAFA9C0 Accurately ripped (confidence 2) [7AE90511] Copy OK

Track 8

Filename H:\EAC@Oceandrop rips\[Various Artists] - The Many Faces of Naxos Jazz {Naxos}\08 - Rain Check.wav

Pre-gap length 0:00:03.50

Peak level 100.0 % Extraction speed 8.6 X Track quality 100.0 % Test CRC 181D22F2 Copy CRC 181D22F2 Accurately ripped (confidence 2) [88BB6ED6] Copy OK

Track 9

Filename H:\EAC@Oceandrop rips\[Various Artists] - The Many Faces of Naxos Jazz {Naxos}\09 - Into the Dark.wav

Pre-gap length 0:00:02.62

Peak level 100.0 % Extraction speed 8.3 X Track quality 99.9 % Test CRC 6B2A091B Copy CRC 6B2A091B Accurately ripped (confidence 2) [8D398765] Copy OK

Track 10

Filename H:\EAC@Oceandrop rips\[Various Artists] - The Many Faces of Naxos Jazz {Naxos}\10 - The Nine Beat Boogie.wav

Pre-gap length 0:00:03.00

Peak level 82.5 % Extraction speed 8.9 X Track quality 100.0 % Test CRC C0C50A4A Copy CRC C0C50A4A Accurately ripped (confidence 2) [F2E69D94] Copy OK

Track 11

Filename H:\EAC@Oceandrop rips\[Various Artists] - The Many Faces of Naxos Jazz {Naxos}\11 - 3rd Line for Shorter.wav

Pre-gap length 0:00:03.02

Peak level 100.0 % Extraction speed 9.6 X Track quality 100.0 % Test CRC 63D8387E Copy CRC 63D8387E Accurately ripped (confidence 2) [D3719415] Copy OK

Track 12

Filename H:\EAC@Oceandrop rips\[Various Artists] - The Many Faces of Naxos Jazz {Naxos}\12 - El Bahdja.wav

Pre-gap length 0:00:03.70

Peak level 100.0 % Extraction speed 10.0 X Track quality 100.0 % Test CRC EC7BF181 Copy CRC EC7BF181 Accurately ripped (confidence 2) [A06B7AD8] Copy OK

All tracks accurately ripped

No errors occurred

End of status report

==== Log checksum CE9844F1F5584D3FBC95ACEBD257472B256BE1BB2428C8D6E7538F2139C3AA5E ====
 
REM GENRE JazzREM DATE 1999REM DISCID AC118A0CREM COMMENT "ExactAudioCopy v1.0b1"PERFORMER "Various"TITLE "The Many Faces of Naxos Jazz"FILE "01. I Love You.flac" WAVE TRACK 01 AUDIO TITLE "I Love You" PERFORMER "Gail Wynters" INDEX 01 00:00:00 TRACK 02 AUDIO TITLE "One Minute For Myself" PERFORMER "Tolvan Big Band" INDEX 00 03:58:58FILE "02. One Minute For Myself.flac" WAVE INDEX 01 00:00:00 TRACK 03 AUDIO TITLE "All Blues" PERFORMER "UMO Jazz Orchestra" INDEX 00 06:34:50FILE "03. All Blues.flac" WAVE INDEX 01 00:00:00 TRACK 04 AUDIO TITLE "Master Power" PERFORMER "Clifford Adams" INDEX 00 05:02:38FILE "04. Master Power.flac" WAVE INDEX 01 00:00:00 TRACK 05 AUDIO TITLE "Five'll Getcha" PERFORMER "Mike Nock Quintet" INDEX 00 05:07:53FILE "05. Five'll Getcha.flac" WAVE INDEX 01 00:00:00 TRACK 06 AUDIO TITLE "Mountain Mama" PERFORMER "Donny McCaslin" INDEX 00 07:02:65FILE "06. Mountain Mama.flac" WAVE INDEX 01 00:00:00 TRACK 07 AUDIO TITLE "Brother Bass" PERFORMER "Niko Schauble" INDEX 00 06:06:10FILE "07. Brother Bass.flac" WAVE INDEX 01 00:00:00 TRACK 08 AUDIO TITLE "Rain Check" PERFORMER "Joe Temperley" INDEX 00 07:43:47FILE "08. Rain Check.flac" WAVE INDEX 01 00:00:00 TRACK 09 AUDIO TITLE "Into The Dark" PERFORMER "Los Angeles Jazz Quartet" INDEX 00 06:13:48FILE "09. Into The Dark.flac" WAVE INDEX 01 00:00:00 TRACK 10 AUDIO TITLE "The Nine Beat Boogie" PERFORMER "Larry Karush" INDEX 00 06:41:33FILE "10. The Nine Beat Boogie.flac" WAVE INDEX 01 00:00:00 TRACK 11 AUDIO TITLE "3rd Line For Shorter" PERFORMER "Lars Moller" INDEX 00 04:14:55FILE "11. 3rd Line For Shorter.flac" WAVE INDEX 01 00:00:00 TRACK 12 AUDIO TITLE "El Bahdja" PERFORMER "Chris Cody Coalition" INDEX 00 07:10:35FILE "12. El Bahdja.flac" WAVE INDEX 01 00:00:00


Трекер:  [ 28-Янв-2012 07:28 ]

  

Скачать .torrent

Размер .torrent файла 22 KB


Размер: 504 MB
Хэш (hash) релиза: 064eb97ca3222e3c45216d9b80783dbb5fc57e55

Еще никто не оставлял запись к записи скачать торрент VA - The Many Faces Of Naxos Jazz - 1999, FLAC . Будь первым!

!Обратная связь