Скачать через торрент музыку Charlie Byrd — Brazilian Byrd — 1965, FLAC бесплатно без регистрации torrent

Если у вас наблюдаются проблемы со скриншотами, переходом по ссылками, скачиванием торрентов - проблемы в блокировщике рекламы AdBlock. #хорошегоДня!


Статистика раздачи
Размер:  183 MB   |    Зарегистрирован:  5 лет 8 месяцев   |    .torrent скачан:  31 раз   |   
Раздают:  1  
   
Загрузка...
 
Автор Сообщение

Umakiro

avatar Umakiro


Charlie Byrd – Brazilian Byrd

Жанр: Bossa Nova
Год издания диска: 1965
Издатель (лейбл): Columbia
Номер по каталогу: CK 52973
Аудиокодек: FLAC (*.flac)
Тип рипа: image+.cue
Битрейт аудио: lossless
Продолжительность: 37:05
Релизер: crni
Наличие сканов в содержимом раздачи: нет

Треклист:
01. Jazz 'n' Samba (2:23)
02. Corcovado (2:56)
03. That Look You Wear (2:33)
04. The Girl From Ipanema (2:48)
05. Samba Do Aviao (2:26)
06. Engano (2:26)
07. O Amor (3:13)
08. Dindi (3:57)
09. Canção Do Amor Demais (2:23)
10. As Praias Desertas (4:05)
11. Samba Torto (2:18)
12. Someone To Light Up My Life (3:14)
13. Engano (2:21)
 
 
Exact Audio Copy V1.0 beta 3 from 29. August 2011

EAC extraction logfile from 3. December 2011, 18:19

Charlie Byrd / Brazilian Byrd

Used drive : Optiarc DVD RW AD-7530B Adapter: 2 ID: 0

Read mode : SecureUtilize accurate stream : YesDefeat audio cache : YesMake use of C2 pointers : No

Read offset correction : 6Overread into Lead-In and Lead-Out : YesFill up missing offset samples with silence : YesDelete leading and trailing silent blocks : NoNull samples used in CRC calculations : YesUsed interface : Native Win32 interface for Win NT & 2000

Used output format : User Defined EncoderSelected bitrate : 1024 kBit/sQuality : HighAdd ID3 tag : NoCommand line compressor : C:\Program Files\Exact Audio Copy\FLAC\FLAC.EXEAdditional command line options : -6 -V -T "ARTIST=%artist%" -T "TITLE=%title%" -T "ALBUM=%albumtitle%" -T "DATE=%year%" -T "TRACKNUMBER=%tracknr%" -T "GENRE=%genre%" -T "COMMENT=%comment%" -T "BAND=%albuminterpret%" -T "ALBUMARTIST=%albuminterpret%" -T "COMPOSER=%composer%" %haslyrics%--tag-from-file=LYRICS="%lyricsfile%"%haslyrics% -T "DISCNUMBER=%cdnumber%" -T "TOTALDISCS=%totalcds%" -T "TOTALTRACKS=%numtracks%" %hascover%--picture="%coverfile%"%hascover% %source% -o %dest%

TOC of the extracted CD

Track | Start | Length | Start sector | End sector --------------------------------------------------------- 1 | 0:00.00 | 2:23.30 | 0 | 10754 2 | 2:23.30 | 2:56.20 | 10755 | 23974 3 | 5:19.50 | 2:32.50 | 23975 | 35424 4 | 7:52.25 | 2:48.10 | 35425 | 48034 5 | 10:40.35 | 2:25.50 | 48035 | 58959 6 | 13:06.10 | 2:25.38 | 58960 | 69872 7 | 15:31.48 | 3:12.57 | 69873 | 84329 8 | 18:44.30 | 3:57.18 | 84330 | 102122 9 | 22:41.48 | 2:23.30 | 102123 | 112877 10 | 25:05.03 | 4:05.37 | 112878 | 131289 11 | 29:10.40 | 2:18.18 | 131290 | 141657 12 | 31:28.58 | 3:14.27 | 141658 | 156234 13 | 34:43.10 | 2:21.35 | 156235 | 166844

Range status and errors

Selected range

Filename C:\Users\Dejan\Music\Charlie Byrd - Brazilian Byrd.wav

Peak level 95.5 % Extraction speed 4.4 X Range quality 99.9 % Copy CRC 27541CE7 Copy OK

No errors occurred

AccurateRip summary

Track 1 not present in databaseTrack 2 not present in databaseTrack 3 not present in databaseTrack 4 not present in databaseTrack 5 not present in databaseTrack 6 not present in databaseTrack 7 not present in databaseTrack 8 not present in databaseTrack 9 not present in databaseTrack 10 not present in databaseTrack 11 not present in databaseTrack 12 not present in databaseTrack 13 not present in database

None of the tracks are present in the AccurateRip database

End of status report

------------------------------------------------------------

Exact Audio Copy V1.0 beta 3 from 29. August 2011

EAC extraction logfile from 3. December 2011, 18:20

Charlie Byrd / Brazilian Byrd

Used drive : Optiarc DVD RW AD-7530B Adapter: 2 ID: 0

Read mode : SecureUtilize accurate stream : YesDefeat audio cache : YesMake use of C2 pointers : No

Read offset correction : 6Overread into Lead-In and Lead-Out : YesFill up missing offset samples with silence : YesDelete leading and trailing silent blocks : NoNull samples used in CRC calculations : YesUsed interface : Native Win32 interface for Win NT & 2000

Used output format : User Defined EncoderSelected bitrate : 1024 kBit/sQuality : HighAdd ID3 tag : NoCommand line compressor : C:\Program Files\Exact Audio Copy\FLAC\FLAC.EXEAdditional command line options : -6 -V -T "ARTIST=%artist%" -T "TITLE=%title%" -T "ALBUM=%albumtitle%" -T "DATE=%year%" -T "TRACKNUMBER=%tracknr%" -T "GENRE=%genre%" -T "COMMENT=%comment%" -T "BAND=%albuminterpret%" -T "ALBUMARTIST=%albuminterpret%" -T "COMPOSER=%composer%" %haslyrics%--tag-from-file=LYRICS="%lyricsfile%"%haslyrics% -T "DISCNUMBER=%cdnumber%" -T "TOTALDISCS=%totalcds%" -T "TOTALTRACKS=%numtracks%" %hascover%--picture="%coverfile%"%hascover% %source% -o %dest%

TOC of the extracted CD

Track | Start | Length | Start sector | End sector --------------------------------------------------------- 1 | 0:00.00 | 2:23.30 | 0 | 10754 2 | 2:23.30 | 2:56.20 | 10755 | 23974 3 | 5:19.50 | 2:32.50 | 23975 | 35424 4 | 7:52.25 | 2:48.10 | 35425 | 48034 5 | 10:40.35 | 2:25.50 | 48035 | 58959 6 | 13:06.10 | 2:25.38 | 58960 | 69872 7 | 15:31.48 | 3:12.57 | 69873 | 84329 8 | 18:44.30 | 3:57.18 | 84330 | 102122 9 | 22:41.48 | 2:23.30 | 102123 | 112877 10 | 25:05.03 | 4:05.37 | 112878 | 131289 11 | 29:10.40 | 2:18.18 | 131290 | 141657 12 | 31:28.58 | 3:14.27 | 141658 | 156234 13 | 34:43.10 | 2:21.35 | 156235 | 166844

Range status and errors

Selected range

Filename C:\Users\Dejan\Music\Charlie Byrd - Brazilian Byrd.wav

Peak level 95.5 % Extraction speed 4.4 X Range quality 99.9 % Copy CRC 27541CE7 Copy OK

No errors occurred

AccurateRip summary

Track 1 not present in databaseTrack 2 not present in databaseTrack 3 not present in databaseTrack 4 not present in databaseTrack 5 not present in databaseTrack 6 not present in databaseTrack 7 not present in databaseTrack 8 not present in databaseTrack 9 not present in databaseTrack 10 not present in databaseTrack 11 not present in databaseTrack 12 not present in databaseTrack 13 not present in database

None of the tracks are present in the AccurateRip database

End of status report
 
REM GENRE JazzREM DATE 1965REM DISCID A708B00DCATALOG 0000000000000PERFORMER "Charlie Byrd"TITLE "Brazilian Byrd"FILE "Charlie Byrd - Brazilian Byrd.flac" WAVE TRACK 01 AUDIO TITLE "Jazz 'n' Samba" PERFORMER "Charlie Byrd" INDEX 01 00:00:00 TRACK 02 AUDIO TITLE "Corcovado" PERFORMER "Charlie Byrd" INDEX 00 02:22:39 INDEX 01 02:23:30 TRACK 03 AUDIO TITLE "That Look You Wear" PERFORMER "Charlie Byrd" INDEX 00 05:19:06 INDEX 01 05:19:50 TRACK 04 AUDIO TITLE "The Girl From Ipanema" PERFORMER "Charlie Byrd" INDEX 00 07:52:06 INDEX 01 07:52:25 TRACK 05 AUDIO TITLE "Samba Do Aviao" PERFORMER "Charlie Byrd" INDEX 00 10:39:22 INDEX 01 10:40:35 TRACK 06 AUDIO TITLE "Engano" PERFORMER "Charlie Byrd" INDEX 00 13:05:51 INDEX 01 13:06:10 TRACK 07 AUDIO TITLE "O Amor" PERFORMER "Charlie Byrd" INDEX 00 15:30:16 INDEX 01 15:31:48 TRACK 08 AUDIO TITLE "Dindi" PERFORMER "Charlie Byrd" INDEX 00 18:42:55 INDEX 01 18:44:30 TRACK 09 AUDIO TITLE "Cancao Do Amor Demais" PERFORMER "Charlie Byrd" INDEX 00 22:40:44 INDEX 01 22:41:48 TRACK 10 AUDIO TITLE "As Praias Desertas" PERFORMER "Charlie Byrd" INDEX 00 25:04:26 INDEX 01 25:05:03 TRACK 11 AUDIO TITLE "Samba Torto" PERFORMER "Charlie Byrd" INDEX 00 29:10:17 INDEX 01 29:10:40 TRACK 12 AUDIO TITLE "Someone To Light Up My Life" PERFORMER "Charlie Byrd" INDEX 00 31:28:06 INDEX 01 31:28:58 TRACK 13 AUDIO TITLE "Engano" PERFORMER "Charlie Byrd" INDEX 00 34:42:17 INDEX 01 34:43:10


Трекер:  [ 28-Янв-2012 07:26 ]

  

Скачать .torrent

Размер .torrent файла 15 KB


Размер: 183 MB
Хэш (hash) релиза: b5279c31a11d6653df106c1ce04ea792f3aa4be3

Еще никто не оставлял запись к записи скачать торрент Charlie Byrd — Brazilian Byrd — 1965, FLAC . Будь первым!

!Обратная связь