Скачать через торрент музыку New Klezmer Trio — Melt Zonk Rewire бесплатно без регистрации torrent

Если у вас наблюдаются проблемы со скриншотами, переходом по ссылками, скачиванием торрентов - проблемы в блокировщике рекламы AdBlock. #хорошегоДня!


Статистика раздачи
Размер:  284 MB   |    Зарегистрирован:  5 лет 8 месяцев   |    .torrent скачан:  40 раз   |   
Раздают:  1  
   
Загрузка...
 
Автор Сообщение

Umakiro

avatar Umakiro


New Klezmer Trio — Melt Zonk Rewire (1993)

Жанр: Klezmer Jazz
Год издания диска: 1995
Издатель (лейбл): Tzadik Records
Номер по каталогу: TZ 7103
Аудиокодек: FLAC (*.flac)
Тип рипа: tracks+.cue
Битрейт аудио: lossless
Продолжительность: 53:15
Риппер: durmoll
Наличие сканов в содержимом раздачи: да

Треклист:
01. Gas Nine (2:24)
02. Sarcophagous (5:03)
03. The Haunt (4:33)
04. Thermoglyphics (3:33)
05. The Chant (3:23)
06. We Got There (5:28)
07. Feedback Doina (5:09)
08. Freilakh Nakht (3:05)
09. Hypothetical (3:22)
10. The Shot (4:00)
11. Distiller (2:35)
12. Phrases (3:29)
13. Fourth Floor (2:59)
14. Starting Place (4:11)

Personnel:
Ben Goldberg - cl, bcl
Dan Seamans - b
Kenny Wollesen - d
 
 
Exact Audio Copy V1.0 beta 3 from 29. August 2011

EAC extraction logfile from 14. December 2011, 12:00

New Klezmer Trio / Melt Zonk Rewire

Used drive : SONY DVD RW DRU-840A Adapter: 2 ID: 1

Read mode : SecureUtilize accurate stream : YesDefeat audio cache : YesMake use of C2 pointers : No

Read offset correction : 6Overread into Lead-In and Lead-Out : NoFill up missing offset samples with silence : YesDelete leading and trailing silent blocks : NoNull samples used in CRC calculations : YesUsed interface : Native Win32 interface for Win NT & 2000Gap handling : Appended to previous track

Used output format : Internal WAV RoutinesSample format : 44.100 Hz; 16 Bit; Stereo

TOC of the extracted CD

Track | Start | Length | Start sector | End sector --------------------------------------------------------- 1 | 0:00.50 | 2:24.02 | 50 | 10851 2 | 2:24.52 | 5:02.40 | 10852 | 33541 3 | 7:27.17 | 4:33.18 | 33542 | 54034 4 | 12:00.35 | 3:33.30 | 54035 | 70039 5 | 15:33.65 | 3:23.12 | 70040 | 85276 6 | 18:57.02 | 5:27.50 | 85277 | 109851 7 | 24:24.52 | 5:08.58 | 109852 | 133009 8 | 29:33.35 | 3:04.67 | 133010 | 146876 9 | 32:38.27 | 3:22.35 | 146877 | 162061 10 | 36:00.62 | 3:59.73 | 162062 | 180059 11 | 40:00.60 | 2:35.32 | 180060 | 191716 12 | 42:36.17 | 3:29.13 | 191717 | 207404 13 | 46:05.30 | 2:59.20 | 207405 | 220849 14 | 49:04.50 | 4:11.17 | 220850 | 239691

Track 1

Filename D:\01 - Gas Nine.wav

Pre-gap length 0:00:02.50

Peak level 99.7 % Extraction speed 28.1 X Track quality 100.0 % Test CRC 09BF61B9 Copy CRC 09BF61B9 Cannot be verified as accurate (confidence 2) [69CB785E], AccurateRip returned [164CCD50] (AR v2) Copy OK

Track 2

Filename D:\02 - Sarcophagous.wav

Peak level 95.1 % Extraction speed 31.4 X Track quality 100.0 % Test CRC B3C190D5 Copy CRC B3C190D5 Cannot be verified as accurate (confidence 2) [BA3C3819], AccurateRip returned [7DF41E94] (AR v2) Copy OK

Track 3

Filename D:\03 - The Haunt.wav

Peak level 92.0 % Extraction speed 26.9 X Track quality 99.9 % Test CRC A25CF11D Copy CRC A25CF11D Cannot be verified as accurate (confidence 2) [0F13F234], AccurateRip returned [D3214ACB] (AR v2) Copy OK

Track 4

Filename D:\04 - Thermoglyphics.wav

Peak level 96.4 % Extraction speed 10.2 X Track quality 100.0 % Test CRC 5CB66787 Copy CRC 5CB66787 Cannot be verified as accurate (confidence 2) [F102DB8C], AccurateRip returned [4B996A9A] (AR v2) Copy OK

Track 5

Filename D:\05 - The Chant.wav

Peak level 34.0 % Extraction speed 11.3 X Track quality 99.9 % Test CRC 9B0ACF77 Copy CRC 9B0ACF77 Cannot be verified as accurate (confidence 2) [7E1E632F], AccurateRip returned [51123057] (AR v2) Copy OK

Track 6

Filename D:\06 - We Got There.wav

Peak level 93.0 % Extraction speed 16.3 X Track quality 99.9 % Test CRC E950359F Copy CRC E950359F Cannot be verified as accurate (confidence 2) [3FA320E1], AccurateRip returned [B70F0773] (AR v2) Copy OK

Track 7

Filename D:\07 - Feedback Doina.wav

Peak level 96.4 % Extraction speed 21.1 X Track quality 99.9 % Test CRC 1E307E94 Copy CRC 1E307E94 Cannot be verified as accurate (confidence 2) [9101990F], AccurateRip returned [B88E554F] (AR v2) Copy OK

Track 8

Filename D:\08 - Freilakh Nakht.wav

Peak level 94.7 % Extraction speed 19.0 X Track quality 99.9 % Test CRC 926EA677 Copy CRC 926EA677 Cannot be verified as accurate (confidence 2) [785DF496], AccurateRip returned [12B611CC] (AR v2) Copy OK

Track 9

Filename D:\09 - Hypothetical.wav

Peak level 95.3 % Extraction speed 26.8 X Track quality 100.0 % Test CRC D8F8AB68 Copy CRC D8F8AB68 Cannot be verified as accurate (confidence 2) [E6AD2F8C], AccurateRip returned [252EEB64] (AR v2) Copy OK

Track 10

Filename D:\10 - The Shot.wav

Peak level 81.7 % Extraction speed 26.1 X Track quality 100.0 % Test CRC 0ECA5674 Copy CRC 0ECA5674 Cannot be verified as accurate (confidence 2) [2A28DF46], AccurateRip returned [42B1EF15] (AR v2) Copy OK

Track 11

Filename D:\11 - Distiller.wav

Peak level 91.4 % Extraction speed 18.0 X Track quality 100.0 % Test CRC D7283763 Copy CRC D7283763 Cannot be verified as accurate (confidence 2) [7BE9C981], AccurateRip returned [2AFDD53E] (AR v2) Copy OK

Track 12

Filename D:\12 - Phrases.wav

Peak level 51.2 % Extraction speed 23.9 X Track quality 99.9 % Test CRC 51259DF6 Copy CRC 51259DF6 Cannot be verified as accurate (confidence 2) [8C843541], AccurateRip returned [CB9F3581] (AR v2) Copy OK

Track 13

Filename D:\13 - Fourth Floor.wav

Peak level 54.5 % Extraction speed 17.3 X Track quality 99.9 % Test CRC EE7C6EC9 Copy CRC EE7C6EC9 Cannot be verified as accurate (confidence 2) [B90FD29A], AccurateRip returned [E4D32790] (AR v2) Copy OK

Track 14

Filename D:\14 - Starting Place.wav

Peak level 74.7 % Extraction speed 26.7 X Track quality 100.0 % Test CRC BE2ADDDF Copy CRC BE2ADDDF Cannot be verified as accurate (confidence 2) [B8C72356], AccurateRip returned [6E7509E7] (AR v2) Copy OK

No tracks could be verified as accurateYou may have a different pressing from the one(s) in the database

No errors occurred

End of status report

==== Log checksum 6FE298B8B3402A0EAF2D8BDA99C6882071F402E4FBB0B3225887FC197376AD04 ====
 
REM DISCID CF0C7B0EREM COMMENT "ExactAudioCopy v1.0b3"PERFORMER "New Klezmer Trio"TITLE "Melt Zonk Rewire"FILE "01 - Gas Nine.flac" WAVE TRACK 01 AUDIO TITLE "Gas Nine" PERFORMER "New Klezmer Trio" PREGAP 00:00:50 INDEX 01 00:00:00FILE "02 - Sarcophagous.flac" WAVE TRACK 02 AUDIO TITLE "Sarcophagous" PERFORMER "New Klezmer Trio" INDEX 01 00:00:00FILE "03 - The Haunt.flac" WAVE TRACK 03 AUDIO TITLE "The Haunt" PERFORMER "New Klezmer Trio" INDEX 01 00:00:00FILE "04 - Thermoglyphics.flac" WAVE TRACK 04 AUDIO TITLE "Thermoglyphics" PERFORMER "New Klezmer Trio" INDEX 01 00:00:00FILE "05 - The Chant.flac" WAVE TRACK 05 AUDIO TITLE "The Chant" PERFORMER "New Klezmer Trio" INDEX 01 00:00:00FILE "06 - We Got There.flac" WAVE TRACK 06 AUDIO TITLE "We Got There" PERFORMER "New Klezmer Trio" INDEX 01 00:00:00FILE "07 - Feedback Doina.flac" WAVE TRACK 07 AUDIO TITLE "Feedback Doina" PERFORMER "New Klezmer Trio" INDEX 01 00:00:00FILE "08 - Freilakh Nakht.flac" WAVE TRACK 08 AUDIO TITLE "Freilakh Nakht" PERFORMER "New Klezmer Trio" INDEX 01 00:00:00FILE "09 - Hypothetical.flac" WAVE TRACK 09 AUDIO TITLE "Hypothetical" PERFORMER "New Klezmer Trio" INDEX 01 00:00:00FILE "10 - The Shot.flac" WAVE TRACK 10 AUDIO TITLE "The Shot" PERFORMER "New Klezmer Trio" INDEX 01 00:00:00FILE "11 - Distiller.flac" WAVE TRACK 11 AUDIO TITLE "Distiller" PERFORMER "New Klezmer Trio" INDEX 01 00:00:00FILE "12 - Phrases.flac" WAVE TRACK 12 AUDIO TITLE "Phrases" PERFORMER "New Klezmer Trio" INDEX 01 00:00:00FILE "13 - Fourth Floor.flac" WAVE TRACK 13 AUDIO TITLE "Fourth Floor" PERFORMER "New Klezmer Trio" INDEX 01 00:00:00FILE "14 - Starting Place.flac" WAVE TRACK 14 AUDIO TITLE "Starting Place" PERFORMER "New Klezmer Trio" INDEX 01 00:00:00


Трекер:  [ 28-Янв-2012 07:25 ]

  

Скачать .torrent

Размер .torrent файла 12 KB


Размер: 284 MB
Хэш (hash) релиза: 140eb8c4f671af8e23b1a6a82a341ca6e957c274

Еще никто не оставлял запись к записи скачать торрент New Klezmer Trio — Melt Zonk Rewire . Будь первым!

!Обратная связь