Скачать через торрент музыку Conrad Herwig — The Latin Side Of Wayne Shorter — 2008, FLAC бесплатно без регистрации torrent

Если у вас наблюдаются проблемы со скриншотами, переходом по ссылками, скачиванием торрентов - проблемы в блокировщике рекламы AdBlock. #хорошегоДня!


Статистика раздачи
Размер:  461 MB   |    Зарегистрирован:  5 лет 8 месяцев   |    .torrent скачан:  32 раза   |   
Раздают:  1  
   
Загрузка...
 
Автор Сообщение

Umakiro

avatar Umakiro


Conrad Herwig – The Latin Side Of Wayne Shorter

Жанр: Latin Jazz, Post-Bop
Год издания диска: 2008
Издатель (лейбл): Half Note Records
Номер по каталогу: 4535
Аудиокодек: FLAC (*.flac)
Тип рипа: image+.cue
Битрейт аудио: lossless
Продолжительность: 71:47
Источник (релизер): dreadbull
Наличие сканов в содержимом раздачи: да

Треклист:
01. Ping Pong (6:57)
02. Tom Thumb (8:53)
03. El Gaucho (8:45)
04. Night Dreamer (8:16)
05. This Is For Albert (8:02)
06. Adam's Apple (8:19)
07. Masqualero (11:24)
08. Footprints (11:11)

Personnel:
Conrad Herwig - tb
Ronnie Cuber - bars
Luis Perdomo - p (1-5)
Rubén Rodríguez - b
Robby Ameen - d
Pedro Martínez - cga
Special guests:
Brian Lynch - tp (4, 7)
Eddie Palmieri - p (6-8)

Rec.: live at the Blue Note, New York, March 16 & 17, 2007.
 
 
Exact Audio Copy V1.0 beta 2 from 29. April 2011

EAC extraction logfile from 7. December 2011, 16:06

Conrad Herwig / The Latin Side Of Wayne Shorter

Used drive : ASUS DRW-22B2L Adapter: 0 ID: 1

Read mode : SecureUtilize accurate stream : YesDefeat audio cache : YesMake use of C2 pointers : No

Read offset correction : 6Overread into Lead-In and Lead-Out : NoFill up missing offset samples with silence : YesDelete leading and trailing silent blocks : NoNull samples used in CRC calculations : YesUsed interface : Native Win32 interface for Win NT & 2000

Used output format : Internal WAV RoutinesSample format : 44.100 Hz; 16 Bit; Stereo

TOC of the extracted CD

Track | Start | Length | Start sector | End sector --------------------------------------------------------- 1 | 0:00.00 | 6:56.69 | 0 | 31268 2 | 6:56.69 | 8:52.51 | 31269 | 71219 3 | 15:49.45 | 8:44.43 | 71220 | 110562 4 | 24:34.13 | 8:16.31 | 110563 | 147793 5 | 32:50.44 | 8:02.34 | 147794 | 183977 6 | 40:53.03 | 8:18.57 | 183978 | 221384 7 | 49:11.60 | 11:23.71 | 221385 | 272680 8 | 60:35.56 | 11:11.07 | 272681 | 323012

Range status and errors

Selected range

Filename D:\Donkey Files\Conrad Herwig - The Latin Side of Wayne Shorter (2008, Half Note) [eac-ape-scans] byDrBull\Conrad Herwig - The Latin Side Of Wayne Shorter.wav

Peak level 99.6 % Extraction speed 6.3 X Range quality 100.0 % Test CRC 374FB50B Copy CRC 374FB50B Copy OK

No errors occurred

AccurateRip summary

Track 1 accurately ripped (confidence 7) [CD97FB23] (AR v1)Track 2 accurately ripped (confidence 8) [CA79060D] (AR v1)Track 3 accurately ripped (confidence 8) [6F60FC85] (AR v1)Track 4 accurately ripped (confidence 8) [48639C5B] (AR v1)Track 5 accurately ripped (confidence 8) [347999E8] (AR v1)Track 6 accurately ripped (confidence 8) [074CC4FD] (AR v1)Track 7 accurately ripped (confidence 8) [BBB77E2D] (AR v1)Track 8 accurately ripped (confidence 8) [0A785842] (AR v1)

All tracks accurately ripped

End of status report

==== Log checksum E5BC4245AE76B27966CC134F264D7EA7B616EF4B4AB3C836175CBA1A9FA1F56E ====
 
REM GENRE "Latin Jazz"REM DATE 2007REM DISCID 7910D208REM COMMENT "ExactAudioCopy v1.0b2"PERFORMER "Conrad Herwig"TITLE "The Latin Side Of Wayne Shorter"FILE "Conrad Herwig - The Latin Side Of Wayne Shorter.flac" WAVE TRACK 01 AUDIO TITLE "Ping Pong" PERFORMER "Conrad Herwig" INDEX 01 00:00:00 TRACK 02 AUDIO TITLE "Tom Thumb" PERFORMER "Conrad Herwig" INDEX 01 06:56:69 TRACK 03 AUDIO TITLE "El Gaucho" PERFORMER "Conrad Herwig" INDEX 01 15:49:45 TRACK 04 AUDIO TITLE "Night Dreamer" PERFORMER "Conrad Herwig" INDEX 01 24:34:13 TRACK 05 AUDIO TITLE "This Is For Albert" PERFORMER "Conrad Herwig" INDEX 01 32:50:44 TRACK 06 AUDIO TITLE "Adam's Apple" PERFORMER "Conrad Herwig" INDEX 01 40:53:03 TRACK 07 AUDIO TITLE "Masqualero" PERFORMER "Conrad Herwig" INDEX 01 49:11:60 TRACK 08 AUDIO TITLE "Footprints" PERFORMER "Conrad Herwig" INDEX 01 60:35:56
 
[CUETools log; Date: 29.12.2011 20:14:35; Version: 2.0.9][CTDB TOCID: hbUnpstHaCK6ixDso0rATID7R10-] disk not present in database.[AccurateRip ID: 0014c7ef-008c5fbd-7910d208] found.Track [ CRC ] Status 01 [cd97fb23] (7/7) Accurately ripped 02 [ca79060d] (8/8) Accurately ripped 03 [6f60fc85] (8/8) Accurately ripped 04 [48639c5b] (8/8) Accurately ripped 05 [347999e8] (8/8) Accurately ripped 06 [074cc4fd] (8/8) Accurately ripped 07 [bbb77e2d] (8/8) Accurately ripped 08 [0a785842] (8/8) Accurately ripped

Track Peak [ CRC32 ] [W/O NULL] [ LOG ] -- 99,6 [374FB50B] [2D71B292] CRC32 01 98,2 [9D2F6C97] [FD65B622] 02 97,9 [DE7C5CF9] [C810D683] 03 99,2 [7C7F939A] [0A7B1E48] 04 98,2 [AEF98186] [E03037B0] 05 97,2 [52726298] [B3A0263E] 06 98,8 [2574DF4F] [763BE825] 07 97,3 [CF8CAE31] [4E0065C5] 08 99,6 [8028BE2B] [829F3A1C]


Трекер:  [ 28-Янв-2012 07:24 ]

  

Скачать .torrent

Размер .torrent файла 19 KB


Размер: 461 MB
Хэш (hash) релиза: 9d923a2c2e04c7692db23c4e3d7010b5c6782704

Еще никто не оставлял запись к записи скачать торрент Conrad Herwig — The Latin Side Of Wayne Shorter — 2008, FLAC . Будь первым!

!Обратная связь