Скачать через торрент музыку Rosemary Clooney And Duke Ellington & His Orchestra — Blue Rose — 1956, FLAC бесплатно без регистрации torrent

Если у вас наблюдаются проблемы со скриншотами, переходом по ссылками, скачиванием торрентов - проблемы в блокировщике рекламы AdBlock. #хорошегоДня!


Статистика раздачи
Размер:  139 MB   |    Зарегистрирован:  5 лет 8 месяцев   |    .torrent скачан:  32 раза   |   
Раздают:  1  
   
Загрузка...
 
Автор Сообщение

Umakiro

avatar Umakiro


Rosemary Clooney And Duke Ellington & His Orchestra – Blue Rose

Жанр: Vocal Jazz
Год издания диска: 1956
Аудиокодек: FLAC (*.flac)
Тип рипа: image+.cue
Битрейт аудио: lossless
Продолжительность: 44:48
Источник (релизер): демоноид
Наличие сканов в содержимом раздачи: нет

Треклист:
01. Hey Baby (3:56)
02. Sophisticated Lady (3:00)
03. Me And You (2:31)
04. Passion FLower (4:36)
05. I Let A Song Go Out Of My Heart (2:40)
06. It Don't Mean A Thing (If It Ain't Got That Swing) (2:51)
07. Grievin' (4:13)
08. Blue Rose (2:24)
09. I'm Checking Out, Goombye (3:13)
10. I Got It Bad (And That Ain't Good) (3:10)
11. Mood Indigo (6:30)
12. If You Were In My Place (What Would You Do?) (Bonus Track) (3:04)
13. Just A-Sittin' And A-Rockin' (Bonus Track) (2:40)
 
 
Exact Audio Copy V1.0 beta 3 from 29. August 2011

EAC extraction logfile from 7. January 2012, 22:43

Rosemary Clooney and Duke Ellington & His Orchestra / Blue Rose (Remastered & Bonus Tracks)

Used drive : BENQ DVD DD DW1640 Adapter: 0 ID: 1

Read mode : SecureUtilize accurate stream : YesDefeat audio cache : YesMake use of C2 pointers : No

Read offset correction : 618Overread into Lead-In and Lead-Out : NoFill up missing offset samples with silence : YesDelete leading and trailing silent blocks : NoNull samples used in CRC calculations : YesUsed interface : Native Win32 interface for Win NT & 2000

Used output format : Internal WAV RoutinesSample format : 44.100 Hz; 16 Bit; Stereo

TOC of the extracted CD

Track | Start | Length | Start sector | End sector --------------------------------------------------------- 1 | 0:00.00 | 3:56.10 | 0 | 17709 2 | 3:56.10 | 3:00.00 | 17710 | 31209 3 | 6:56.10 | 2:30.72 | 31210 | 42531 4 | 9:27.07 | 4:36.00 | 42532 | 63231 5 | 14:03.07 | 2:40.00 | 63232 | 75231 6 | 16:43.07 | 2:51.00 | 75232 | 88056 7 | 19:34.07 | 4:13.00 | 88057 | 107031 8 | 23:47.07 | 2:24.00 | 107032 | 117831 9 | 26:11.07 | 3:12.38 | 117832 | 132269 10 | 29:23.45 | 3:10.00 | 132270 | 146519 11 | 32:33.45 | 6:30.37 | 146520 | 175806 12 | 39:04.07 | 3:04.03 | 175807 | 189609 13 | 42:08.10 | 2:40.25 | 189610 | 201634

Range status and errors

Selected range

Filename C:\My Music\Rosemary Clooney and Duke Ellington & His Orchestra - Blue Rose\Rosemary Clooney and Duke Ellington & His Orchestra - Blue Rose (Remastered & Bonus Tracks).wav

Peak level 95.6 % Extraction speed 7.7 X Range quality 100.0 % Copy CRC 57EE6F02 Copy OK

No errors occurred

End of status report

---- CUETools DB Plugin V2.1.3

[CTDB TOCID: iBt_0_iaSCfG3cgbvVg4nK1i8Jc-] disk not present in database, Submit result: database access error: The operation has timed out
 
REM GENRE JazzREM DATE 1956REM DISCID B60A800DREM COMMENT ExactAudioCopy v1.0b3PERFORMER "Rosemary Clooney and Duke Ellington & His Orchestra"TITLE "Blue Rose"FILE "Rosemary Clooney and Duke Ellington & His Orchestra - Blue Rose.flac" WAVE TRACK 01 AUDIO TITLE "Hey Baby" INDEX 01 00:00:00 TRACK 02 AUDIO TITLE "Sophisticated Lady" FLAGS DCP INDEX 00 03:53:25 INDEX 01 03:56:10 TRACK 03 AUDIO TITLE "Me And You" FLAGS DCP INDEX 00 06:53:25 INDEX 01 06:56:10 TRACK 04 AUDIO TITLE "Passion FLower" FLAGS DCP INDEX 00 09:24:25 INDEX 01 09:27:07 TRACK 05 AUDIO TITLE "I Let A Song Go Out Of My Heart" FLAGS DCP INDEX 00 14:00:25 INDEX 01 14:03:07 TRACK 06 AUDIO TITLE "It Don't Mean A Thing (If It Ain't Got That Swing)" FLAGS DCP INDEX 00 16:40:25 INDEX 01 16:43:07 TRACK 07 AUDIO TITLE "Grievin'" FLAGS DCP INDEX 00 19:31:22 INDEX 01 19:34:07 TRACK 08 AUDIO TITLE "Blue Rose" FLAGS DCP INDEX 00 23:44:22 INDEX 01 23:47:07 TRACK 09 AUDIO TITLE "I'm Checking Out, Goombye" FLAGS DCP INDEX 00 26:08:22 INDEX 01 26:11:07 TRACK 10 AUDIO TITLE "I Got It Bad (And That Ain't Good)" FLAGS DCP INDEX 00 29:20:62 INDEX 01 29:23:45 TRACK 11 AUDIO TITLE "Mood Indigo" FLAGS DCP INDEX 00 32:30:62 INDEX 01 32:33:45 TRACK 12 AUDIO TITLE "If You Were In My Place (What Would You Do?) (Bonus Track)" FLAGS DCP INDEX 00 39:01:25 INDEX 01 39:04:07 TRACK 13 AUDIO TITLE "Just A-Sittin' And A-Rockin' (Bonus Track)" FLAGS DCP INDEX 00 42:05:25 INDEX 01 42:08:10
 
[CUETools log; Date: 08.01.2012 12:23:31; Version: 2.0.9][CTDB TOCID: iBt_0_iaSCfG3cgbvVg4nK1i8Jc-] disk not present in database.[AccurateRip ID: 00153087-00d49516-b60a800d] found.Track [ CRC ] Status 01 [db902f5f] (02/15) Accurately ripped 02 [fff45afa] (02/15) Accurately ripped 03 [1f979a22] (02/15) Accurately ripped 04 [1561e70b] (02/14) Accurately ripped 05 [783c73f3] (02/15) Accurately ripped 06 [d3c9603b] (02/15) Accurately ripped 07 [d2acb1b7] (02/14) Accurately ripped 08 [1d493e4b] (02/14) Accurately ripped 09 [a9a6020d] (02/15) Accurately ripped 10 [b06a1533] (02/15) Accurately ripped 11 [3851b8a6] (02/15) Accurately ripped 12 [6771d3cc] (02/15) Accurately ripped 13 [f822d688] (02/15) Accurately ripped

Track Peak [ CRC32 ] [W/O NULL] [ LOG ] -- 95,6 [57EE6F02] [EF7BD0BE] CRC32 01 76,4 [F4C02140] [35B9A088] 02 68,2 [1919FF56] [52522B64] 03 76,9 [2981E20C] [87EF0E78] 04 95,6 [49F0C5AC] [5C0CF511] 05 84,8 [99822650] [B240DB3D] 06 72,7 [B9B13F3C] [94A48B63] 07 82,8 [D4017105] [8C0354E0] 08 87,0 [5224193B] [638A05FE] 09 79,2 [51A0F2A1] [FD19A776] 10 76,0 [ED4F9073] [C61F2106] 11 64,7 [566D359A] [2EBE20A8] 12 54,9 [E652B00B] [0DB2FABF] 13 63,8 [47392EA6] [717BCB54]


Трекер:  [ 28-Янв-2012 07:23 ]

  

Скачать .torrent

Размер .torrent файла 11 KB


Размер: 139 MB
Хэш (hash) релиза: 8eae5969ef1285409d40e480b786b3f541a72784

Еще никто не оставлял запись к записи скачать торрент Rosemary Clooney And Duke Ellington & His Orchestra — Blue Rose — 1956, FLAC . Будь первым!

!Обратная связь