Скачать через торрент музыку Cal Tjader With Bobo & Mongo Santamaria — Latino бесплатно без регистрации torrent

Если у вас наблюдаются проблемы со скриншотами, переходом по ссылками, скачиванием торрентов - проблемы в блокировщике рекламы AdBlock. #хорошегоДня!


Статистика раздачи
Размер:  464 MB   |    Зарегистрирован:  5 лет 8 месяцев   |    .torrent скачан:  44 раза   |   
Раздают:  1  
   
Загрузка...
 
Автор Сообщение

Umakiro

avatar Umakiro


Cal Tjader With Bobo & Mongo Santamaria – Latino (1960)

Жанр: Latin Jazz, Post-Bop
Год издания диска: 1994
Издатель (лейбл): Fantasy
Номер по каталогу: 00025218243223
Аудиокодек: FLAC (*.flac)
Тип рипа: tracks+.cue
Битрейт аудио: lossless
Продолжительность: 73:52
Rip by Sarchiapone
Наличие сканов в содержимом раздачи: да

Треклист:
01. Manila (4:51)
02. Key Largo (3:33)
03. Tumbao (6:45)
04. Bludan (3:07)
05. Chispita (3:26)
06. September Song (3:44)
07. Cal's Pals (3:35)
08. Para Ti (3:27)
09. Mamblues (4:41)
10. Afro Blue (6:33)
11. Cuban Fantasy (6:30)
12. Rezo (5:59)
13. Mambo Terrifico (4:22)
14. A Night In Tunisia (8:35)
15. The Continental (4:45)
 
Personnel:
Cal Tjader - vibes
Mongo Santamaria - conga drums
Willie Bobo - drums, timbales
Tony Terran (#2, 4, 5, 7) - trumpet
Jose Lozano (#1, 3, 6, 8, 9), Paul Horn (#10), Rolando Lozano (#13, 15) - flute
Modesto Briseno - flute & alto saxophone (#2, 4, 5, 7), Jose 'Chombo' Silva - tenor saxophone (#14)
Lonnie Hewitt (#1, 3, 6, 8-13, 15), Eddie Cano (#2, 4, 5, 7), Vince Guaraldi (#14) - piano
Victor Venegas (#1, 3, 6, 8, 9, 13, 15), Al McKibbon (#2, 4, 5, 7, 10, 14), Eddie Coleman (#11, 12) - bass
The Eddie Cano Big Band (on #2, 4, 5, 7)

Rec.: Blackhawk, San Francisco, CA, 1960 (#1, 3, 6, 8, 9);
____
Los Angeles, CA, 1960 (# 2, 4, 5, 7);
____
Recording dates on #10-15 unknown.

#1-9 original LP issue: "Cal Tjader - Demasiado Caliente" (Fantasy LP 3309, LP 8053)
#10-15 original LP issue: "Cal Tjader - Latino!" (Fantasy LP 3339, LP 8079)
 
 
Exact Audio Copy V0.99 prebeta 4 from 23. January 2008

EAC extraction logfile from 15. December 2008, 11:04

Cal Tjader / Latino

Used drive : PLEXTOR CD-R PREMIUM2 Adapter: 1 ID: 1

Read mode : SecureUtilize accurate stream : YesDefeat audio cache : YesMake use of C2 pointers : No

Read offset correction : 30Overread into Lead-In and Lead-Out : NoFill up missing offset samples with silence : YesDelete leading and trailing silent blocks : NoNull samples used in CRC calculations : YesUsed interface : Installed external ASPI interfaceGap handling : Appended to previous track

Used output format : User Defined EncoderSelected bitrate : 32 kBit/sQuality : HighAdd ID3 tag : NoCommand line compressor : C:\Programmi\FLAC\flac.exeAdditional command line options : -8 -V -T "ARTIST=%a" -T "TITLE=%t" -T "ALBUM=%g" -T "DATE=%y" -T "TRACKNUMBER=%n" -T "GENRE=%m" -T "COMMENT=EAC FLAC -8" %s

TOC of the extracted CD

Track | Start | Length | Start sector | End sector --------------------------------------------------------- 1 | 0:00.00 | 4:51.03 | 0 | 21827 2 | 4:51.03 | 3:33.15 | 21828 | 37817 3 | 8:24.18 | 6:45.12 | 37818 | 68204 4 | 15:09.30 | 3:06.60 | 68205 | 82214 5 | 18:16.15 | 3:25.65 | 82215 | 97654 6 | 21:42.05 | 3:43.50 | 97655 | 114429 7 | 25:25.55 | 3:34.38 | 114430 | 130517 8 | 29:00.18 | 3:26.62 | 130518 | 146029 9 | 32:27.05 | 4:40.73 | 146030 | 167102 10 | 37:08.03 | 6:32.47 | 167103 | 196549 11 | 43:40.50 | 6:30.30 | 196550 | 225829 12 | 50:11.05 | 5:58.70 | 225830 | 252749 13 | 56:10.00 | 4:21.40 | 252750 | 272364 14 | 60:31.40 | 8:34.58 | 272365 | 310972 15 | 69:06.23 | 4:45.30 | 310973 | 332377

Track 1

Filename D:\My Rip\01 - Manila.wav

Pre-gap length 0:00:02.00

Peak level 100.0 % Track quality 100.0 % Test CRC 45E5E863 Copy CRC 45E5E863 Cannot be verified as accurate (confidence 2) [263AA3F0], AccurateRip returned [7F059BF9] Copy OK

Track 2

Filename D:\My Rip\02 - Key Largo.wav

Pre-gap length 0:00:01.50

Peak level 100.0 % Track quality 99.9 % Test CRC 6D5AEC64 Copy CRC 6D5AEC64 Cannot be verified as accurate (confidence 2) [569BA1F2], AccurateRip returned [A598455D] Copy OK

Track 3

Filename D:\My Rip\03 - Tumbao.wav

Pre-gap length 0:00:02.53

Peak level 100.0 % Track quality 100.0 % Test CRC B825376C Copy CRC B825376C Cannot be verified as accurate (confidence 2) [203261CC], AccurateRip returned [D3BC5F78] Copy OK

Track 4

Filename D:\My Rip\04 - Bludan.wav

Pre-gap length 0:00:01.66

Peak level 100.0 % Track quality 100.0 % Test CRC 198F0950 Copy CRC 198F0950 Cannot be verified as accurate (confidence 2) [92B6759B], AccurateRip returned [F568BC2D] Copy OK

Track 5

Filename D:\My Rip\05 - Chispita.wav

Pre-gap length 0:00:02.29

Peak level 100.0 % Track quality 99.9 % Test CRC 82DC5629 Copy CRC 82DC5629 Cannot be verified as accurate (confidence 2) [3AB20996], AccurateRip returned [FC305EEA] Copy OK

Track 6

Filename D:\My Rip\06 - September Song.wav

Pre-gap length 0:00:01.69

Peak level 89.2 % Track quality 100.0 % Test CRC F86735D9 Copy CRC F86735D9 Cannot be verified as accurate (confidence 2) [CE9D8208], AccurateRip returned [7FFECC10] Copy OK

Track 7

Filename D:\My Rip\07 - Cal's Pals.wav

Pre-gap length 0:00:01.56

Peak level 100.0 % Track quality 99.9 % Test CRC 384D80ED Copy CRC 384D80ED Cannot be verified as accurate (confidence 2) [9B6C60B2], AccurateRip returned [6CC65CAC] Copy OK

Track 8

Filename D:\My Rip\08 - Para Ti.wav

Pre-gap length 0:00:01.73

Peak level 98.3 % Track quality 100.0 % Test CRC B72E94CB Copy CRC B72E94CB Cannot be verified as accurate (confidence 2) [DC1CA88B], AccurateRip returned [6AC024E3] Copy OK

Track 9

Filename D:\My Rip\09 - Mamblues.wav

Pre-gap length 0:00:00.86

Peak level 100.0 % Track quality 100.0 % Test CRC DB126C14 Copy CRC DB126C14 Cannot be verified as accurate (confidence 2) [296BB5B6], AccurateRip returned [C7404AD7] Copy OK

Track 10

Filename D:\My Rip\10 - Afro Blue.wav

Pre-gap length 0:00:03.40

Peak level 100.0 % Track quality 100.0 % Test CRC 10A1DA15 Copy CRC 10A1DA15 Cannot be verified as accurate (confidence 2) [A4131D35], AccurateRip returned [3F5DE311] Copy OK

Track 11

Filename D:\My Rip\11 - Cuban Fantasy.wav

Pre-gap length 0:00:00.40

Peak level 100.0 % Track quality 100.0 % Test CRC 1EB02544 Copy CRC 1EB02544 Cannot be verified as accurate (confidence 2) [6179D755], AccurateRip returned [8BE9A928] Copy OK

Track 12

Filename D:\My Rip\12 - Rezo.wav

Pre-gap length 0:00:00.53

Peak level 100.0 % Track quality 99.9 % Test CRC 63B6E954 Copy CRC 63B6E954 Cannot be verified as accurate (confidence 2) [1DC10442], AccurateRip returned [56EC3313] Copy OK

Track 13

Filename D:\My Rip\13 - Mambo Terrifico.wav

Pre-gap length 0:00:02.02

Peak level 100.0 % Track quality 100.0 % Test CRC BBC200CA Copy CRC BBC200CA Cannot be verified as accurate (confidence 2) [67B6BC61], AccurateRip returned [077FDB98] Copy OK

Track 14

Filename D:\My Rip\14 - A Night In Tunisia.wav

Pre-gap length 0:00:01.02

Peak level 100.0 % Track quality 100.0 % Test CRC 5B9BE08F Copy CRC 5B9BE08F Cannot be verified as accurate (confidence 2) [48D5ED4D], AccurateRip returned [A1496B49] Copy OK

Track 15

Filename D:\My Rip\15 - The Continental.wav

Pre-gap length 0:00:00.04

Peak level 100.0 % Track quality 100.0 % Test CRC 7EBADF99 Copy CRC 7EBADF99 Cannot be verified as accurate (confidence 2) [EFED8F8B], AccurateRip returned [08F8A3D3] Copy OK

No tracks could be verified as accurateYou may have a different pressing from the one(s) in the database

No errors occurred

End of status report
 
REM GENRE JazzREM DATE 1960REM DISCID BD114F0FREM COMMENT "ExactAudioCopy v0.99pb4"PERFORMER "Cal Tjader"TITLE "Latino"FILE "01 - Manila.flac" WAVE TRACK 01 AUDIO TITLE "Manila" PERFORMER "Cal Tjader" INDEX 01 00:00:00 TRACK 02 AUDIO TITLE "Key Largo" PERFORMER "Cal Tjader" INDEX 00 04:49:40FILE "02 - Key Largo.flac" WAVE INDEX 01 00:00:00 TRACK 03 AUDIO TITLE "Tumbao" PERFORMER "Cal Tjader" INDEX 00 03:30:50FILE "03 - Tumbao.flac" WAVE INDEX 01 00:00:00 TRACK 04 AUDIO TITLE "Bludan" PERFORMER "Cal Tjader" INDEX 00 06:43:37FILE "04 - Bludan.flac" WAVE INDEX 01 00:00:00 TRACK 05 AUDIO TITLE "Chispita" PERFORMER "Cal Tjader" INDEX 00 03:04:38FILE "05 - Chispita.flac" WAVE INDEX 01 00:00:00 TRACK 06 AUDIO TITLE "September Song" PERFORMER "Cal Tjader" INDEX 00 03:24:13FILE "06 - September Song.flac" WAVE INDEX 01 00:00:00 TRACK 07 AUDIO TITLE "Cal's Pals" PERFORMER "Cal Tjader" INDEX 00 03:42:08FILE "07 - Cal's Pals.flac" WAVE INDEX 01 00:00:00 TRACK 08 AUDIO TITLE "Para Ti" PERFORMER "Cal Tjader" INDEX 00 03:32:58FILE "08 - Para Ti.flac" WAVE INDEX 01 00:00:00 TRACK 09 AUDIO TITLE "Mamblues" PERFORMER "Cal Tjader" INDEX 00 03:25:72FILE "09 - Mamblues.flac" WAVE INDEX 01 00:00:00 TRACK 10 AUDIO TITLE "Afro Blue" PERFORMER "Cal Tjader" INDEX 00 04:37:43FILE "10 - Afro Blue.flac" WAVE INDEX 01 00:00:00 TRACK 11 AUDIO TITLE "Cuban Fantasy" PERFORMER "Cal Tjader" INDEX 00 06:32:17FILE "11 - Cuban Fantasy.flac" WAVE INDEX 01 00:00:00 TRACK 12 AUDIO TITLE "Rezo" PERFORMER "Cal Tjader" INDEX 00 06:29:65FILE "12 - Rezo.flac" WAVE INDEX 01 00:00:00 TRACK 13 AUDIO TITLE "Mambo Terrifico" PERFORMER "Cal Tjader" INDEX 00 05:56:68FILE "13 - Mambo Terrifico.flac" WAVE INDEX 01 00:00:00 TRACK 14 AUDIO TITLE "A Night In Tunisia" PERFORMER "Cal Tjader" INDEX 00 04:20:38FILE "14 - A Night In Tunisia.flac" WAVE INDEX 01 00:00:00 TRACK 15 AUDIO TITLE "The Continental" PERFORMER "Cal Tjader" INDEX 00 08:34:55FILE "15 - The Continental.flac" WAVE INDEX 01 00:00:00


Трекер:  [ 28-Янв-2012 07:20 ]

  

Скачать .torrent

Размер .torrent файла 20 KB


Размер: 464 MB
Хэш (hash) релиза: 59dab38856bbd790968b712bad6f0d5bd4a4eb7b

Еще никто не оставлял запись к записи скачать торрент Cal Tjader With Bobo & Mongo Santamaria — Latino . Будь первым!

!Обратная связь