Скачать через торрент музыку Cal Tjader — Soul Burst бесплатно без регистрации torrent

Если у вас наблюдаются проблемы со скриншотами, переходом по ссылками, скачиванием торрентов - проблемы в блокировщике рекламы AdBlock. #хорошегоДня!


Статистика раздачи
Размер:  233 MB   |    Зарегистрирован:  5 лет 8 месяцев   |    .torrent скачан:  27 раз   |   
Раздают:  1  
   
Загрузка...
 
Автор Сообщение

Umakiro

avatar Umakiro


Cal Tjader – Soul Burst (1966)

Жанр: Latin Jazz, Post-Bop
Год издания диска: 1998
Издатель (лейбл): Verve
Номер по каталогу: 557 446-2
Аудиокодек: FLAC (*.flac)
Тип рипа: tracks+.cue
Битрейт аудио: lossless
Продолжительность: 39:11
Источник (релизер): найдено в сети
Наличие сканов в содержимом раздачи: да

Треклист:
01. Cuchy Frito Man (2:23)
02. Descarga Cubana (2:58)
03. Soul Burst (Guajera) (4:41)
04. The Bilbao Song (2:19)
05. Manteca (6:36)
06. It Didn't End (Não Se Acabou) (3:58)
07. My Ship (3:02)
08. Morning (2:58)
09. Oran (4:01)
10. Curaçao (6:16)

Personnel:
Cal Tjader - vibraphone, cabasa
Chick Corea - piano
Carlos "Patato" Valdes - conga
Jose Mangual - timbales, bongo
Victor Pantoja - percussion
Seldon Powell (#1-8), Jerome Richardson (#1, 4, 5, 7, 9, 10), Jerry Dodgion (#2, 3, 6, 8) - flute
Attila Zoller - guitar (#1, 4, 5, 7)
Bobby Rodriguez (#2, 3, 6, 8-10), Richard Davis (#1, 4, 5, 7) - double bass
Grady Tate - drums (#1, 4, 5, 7)

Rec.: Van Gelder Recording Studio, Englewood, NJ, February 9 (#3, 10), 10 (#2, 6, 8, 9) & 11 (#1, 4, 5, 7), 1966.
 
 
Exact Audio Copy V0.99 prebeta 5 from 4. May 2009

EAC extraction logfile from 31. January 2010, 19:42

Cal Tjader / Soul Burst

Used drive : Optiarc DVD RW AD-7173S Adapter: 5 ID: 0

Read mode : SecureUtilize accurate stream : YesDefeat audio cache : YesMake use of C2 pointers : No

Read offset correction : 48Overread into Lead-In and Lead-Out : NoFill up missing offset samples with silence : YesDelete leading and trailing silent blocks : NoNull samples used in CRC calculations : YesUsed interface : Installed external ASPI interfaceGap handling : Appended to previous track

Used output format : User Defined EncoderSelected bitrate : 1024 kBit/sQuality : HighAdd ID3 tag : NoCommand line compressor : C:\Program Files\Exact Audio Copy\Flac\flac.exeAdditional command line options : -V -8 -T "artist=%a" -T "title=%t" -T "album=%g" -T "date=%y" -T "tracknumber=%n" -T "genre=%m" %s

TOC of the extracted CD

Track | Start | Length | Start sector | End sector --------------------------------------------------------- 1 | 0:00.00 | 2:23.27 | 0 | 10751 2 | 2:23.27 | 2:58.05 | 10752 | 24106 3 | 5:21.32 | 4:40.63 | 24107 | 45169 4 | 10:02.20 | 2:18.57 | 45170 | 55576 5 | 12:21.02 | 6:36.10 | 55577 | 85286 6 | 18:57.12 | 3:57.45 | 85287 | 103106 7 | 22:54.57 | 3:01.65 | 103107 | 116746 8 | 25:56.47 | 2:58.35 | 116747 | 130131 9 | 28:55.07 | 4:00.48 | 130132 | 148179 10 | 32:55.55 | 6:15.52 | 148180 | 176356

Track 1

Filename D:\LOSSLESS\Cal Tjader - Soul Burst\01.Cuchy Frito Man.wav

Pre-gap length 0:00:02.00

Peak level 100.0 % Track quality 100.0 % Test CRC 673B81A4 Copy CRC 673B81A4 Cannot be verified as accurate (confidence 3) [6BBB81DE], AccurateRip returned [333A6798] Copy OK

Track 2

Filename D:\LOSSLESS\Cal Tjader - Soul Burst\02.Descarga Cubana.wav

Peak level 99.9 % Track quality 100.0 % Test CRC 6EB89F00 Copy CRC 6EB89F00 Cannot be verified as accurate (confidence 3) [CBC81B7E], AccurateRip returned [0B4D11D5] Copy OK

Track 3

Filename D:\LOSSLESS\Cal Tjader - Soul Burst\03.Soul Burst (Guajera).wav

Peak level 100.0 % Track quality 100.0 % Test CRC CC229093 Copy CRC CC229093 Cannot be verified as accurate (confidence 3) [592684A4], AccurateRip returned [CC899909] Copy OK

Track 4

Filename D:\LOSSLESS\Cal Tjader - Soul Burst\04.The Bilbao Song.wav

Peak level 85.1 % Track quality 100.0 % Test CRC C9B5E16C Copy CRC C9B5E16C Cannot be verified as accurate (confidence 3) [855BABDB], AccurateRip returned [ECA8F28D] Copy OK

Track 5

Filename D:\LOSSLESS\Cal Tjader - Soul Burst\05.Manteca.wav

Peak level 100.0 % Track quality 99.9 % Test CRC 01A44B74 Copy CRC 01A44B74 Cannot be verified as accurate (confidence 3) [9B90E3A9], AccurateRip returned [3DAA45B2] Copy OK

Track 6

Filename D:\LOSSLESS\Cal Tjader - Soul Burst\06.It Didn't End (Nгo Se Acabou).wav

Peak level 100.0 % Track quality 100.0 % Test CRC C2C7FBF3 Copy CRC C2C7FBF3 Cannot be verified as accurate (confidence 3) [7CED304C], AccurateRip returned [7509D20B] Copy OK

Track 7

Filename D:\LOSSLESS\Cal Tjader - Soul Burst\07.My Ship.wav

Peak level 100.0 % Track quality 100.0 % Test CRC 141FB4A2 Copy CRC 141FB4A2 Cannot be verified as accurate (confidence 3) [201FB91C], AccurateRip returned [4393B4C6] Copy OK

Track 8

Filename D:\LOSSLESS\Cal Tjader - Soul Burst\08.Morning.wav

Peak level 99.9 % Track quality 100.0 % Test CRC FF4FF4A2 Copy CRC FF4FF4A2 Cannot be verified as accurate (confidence 3) [BBC91724], AccurateRip returned [F0316892] Copy OK

Track 9

Filename D:\LOSSLESS\Cal Tjader - Soul Burst\09.Oran.wav

Peak level 88.3 % Track quality 100.0 % Test CRC 33165AF2 Copy CRC 33165AF2 Cannot be verified as accurate (confidence 3) [1201FAD3], AccurateRip returned [9DE972D2] Copy OK

Track 10

Filename D:\LOSSLESS\Cal Tjader - Soul Burst\10.Curaзao.wav

Peak level 100.0 % Track quality 100.0 % Test CRC 9C013ECC Copy CRC 9C013ECC Cannot be verified as accurate (confidence 3) [C0CB11D8], AccurateRip returned [D0B6DDF5] Copy OK

No tracks could be verified as accurateYou may have a different pressing from the one(s) in the database

No errors occurred

End of status report
 
REM GENRE JazzREM DATE 1966REM DISCID 88092F0AREM COMMENT "ExactAudioCopy v0.99pb5"PERFORMER "Cal Tjader"TITLE "Soul Burst"FILE "01. Cuchy Frito Man.flac" WAVE TRACK 01 AUDIO TITLE "Cuchy Frito Man" PERFORMER "Cal Tjader" INDEX 01 00:00:00FILE "02. Descarga Cubana.flac" WAVE TRACK 02 AUDIO TITLE "Descarga Cubana" PERFORMER "Cal Tjader" INDEX 01 00:00:00FILE "03. Soul Burst (Guajera).flac" WAVE TRACK 03 AUDIO TITLE "Soul Burst (Guajera)" PERFORMER "Cal Tjader" INDEX 01 00:00:00FILE "04. The Bilbao Song.flac" WAVE TRACK 04 AUDIO TITLE "The Bilbao Song" PERFORMER "Cal Tjader" INDEX 01 00:00:00FILE "05. Manteca.flac" WAVE TRACK 05 AUDIO TITLE "Manteca" PERFORMER "Cal Tjader" INDEX 01 00:00:00FILE "06. It Didn't End (Nao Se Acabou).flac" WAVE TRACK 06 AUDIO TITLE "It Didn't End (Nao Se Acabou)" PERFORMER "Cal Tjader" INDEX 01 00:00:00FILE "07. My Ship.flac" WAVE TRACK 07 AUDIO TITLE "My Ship" PERFORMER "Cal Tjader" INDEX 01 00:00:00FILE "08. Morning.flac" WAVE TRACK 08 AUDIO TITLE "Morning" PERFORMER "Cal Tjader" INDEX 01 00:00:00FILE "09. Oran.flac" WAVE TRACK 09 AUDIO TITLE "Oran" PERFORMER "Cal Tjader" INDEX 01 00:00:00FILE "10. Curacao.flac" WAVE TRACK 10 AUDIO TITLE "Curacao" PERFORMER "Cal Tjader" INDEX 01 00:00:00
 
[CUETools log; Date: 09.01.2012 19:30:10; Version: 2.0.9][CTDB TOCID: PYzqqb_j34cnznT5Z8xGDuVmmvg-] disk not present in database.[AccurateRip ID: 000da9b8-006f9571-88092f0a] found.Track [ CRC ] Status 01 [6bbb81de] (00/15) No match 02 [cbc81b7e] (00/15) No match 03 [592684a4] (00/15) No match 04 [855babdb] (00/15) No match 05 [9b90e3a9] (00/15) No match 06 [7ced304c] (00/15) No match 07 [201fb91c] (00/15) No match 08 [bbc91724] (00/15) No match 09 [1201fad3] (00/16) No match 10 [c0cb11d8] (00/15) No matchOffsetted by 103: 01 [333a6798] (09/15) Accurately ripped 02 [0b4d11d5] (09/15) Accurately ripped 03 [cc899909] (09/15) Accurately ripped 04 [eca8f28d] (09/15) Accurately ripped 05 [3daa45b2] (09/15) Accurately ripped 06 [7509d20b] (09/15) Accurately ripped 07 [4393b4c6] (09/15) Accurately ripped 08 [f0316892] (09/15) Accurately ripped 09 [9de972d2] (10/16) Accurately ripped 10 [d0b6ddf5] (09/15) Accurately ripped

Track Peak [ CRC32 ] [W/O NULL] [ LOG ] -- 100,0 [ED122AB3] [5FAC74B2] 01 99,9 [673B81A4] [583E8CC1] CRC32 02 99,9 [6EB89F00] [356A385F] CRC32 03 100,0 [CC229093] [2AF0A567] CRC32 04 85,1 [C9B5E16C] [07B673C7] CRC32 05 99,9 [01A44B74] [DA28D756] CRC32 06 100,0 [C2C7FBF3] [EBD60D4A] CRC32 07 100,0 [141FB4A2] [AD848500] CRC32 08 99,9 [FF4FF4A2] [4E490712] CRC32 09 88,3 [33165AF2] [7F1A33D1] CRC32 10 100,0 [9C013ECC] [78DE658C] CRC32


Трекер:  [ 28-Янв-2012 07:20 ]

  

Скачать .torrent

Размер .torrent файла 19 KB


Размер: 233 MB
Хэш (hash) релиза: 44231831cf4484f03f8f38ab25667d6cc5d2e875

Еще никто не оставлял запись к записи скачать торрент Cal Tjader — Soul Burst . Будь первым!

!Обратная связь