Скачать через торрент музыку Gene Krupa — Drums Drums Drums — 2002, FLAC бесплатно без регистрации torrent

Если у вас наблюдаются проблемы со скриншотами, переходом по ссылками, скачиванием торрентов - проблемы в блокировщике рекламы AdBlock. #хорошегоДня!


Статистика раздачи
Размер:  214 MB   |    Зарегистрирован:  5 лет 8 месяцев   |    .torrent скачан:  29 раз   |   
Раздают:  1  
   
Загрузка...
 
Автор Сообщение

Umakiro

avatar Umakiro


Gene Krupa – Drums Drums Drums

Жанр: Big Band, Swing
Год издания диска: 2002
Издатель (лейбл): Castle Pulse
Номер по каталогу: PLSCD 549
Аудиокодек: FLAC (*.flac)
Тип рипа: tracks+.cue
Битрейт аудио: lossless
Продолжительность: 61:03
Источник (релизер): найдено в сети
Наличие сканов в содержимом раздачи: нет

Треклист:
01. Drummin' Man (3:01)
02. Leave Us Leap (3:05)
03. Drum Boogie (3:10)
04. Boogie Blues (3:24)
05. Bolero At The Savoy (2:54)
06. Lover (2:56)
07. Massachusetts (3:17)
08. Symphony In Riffs (2:56)
09. Opus One (2:58)
10. After You've Gone (2:39)
11. Do You Wanna Jump, Children (2:35)
12. Tuxedo Junction (3:00)
13. Boog-It (3:25)
14. Body & Soul (3:26)
15. That's What You Think (3:14)
16. Wire Brush Stomp (3:18)
17. Nagasaki (2:30)
18. Disk Jockey Jump (3:12)
19. Rhumboogie (2:44)
20. How High The Moon (3:21)
 
 
Exact Audio Copy V0.99 prebeta 3 from 28. July 2007

EAC extraction logfile from 4. September 2010, 12:48

Gene Krupa / Drums Drums Drums

Used drive : Optiarc DVD RW AD-7240S Adapter: 0 ID: 0

Read mode : SecureUtilize accurate stream : YesDefeat audio cache : YesMake use of C2 pointers : No

Read offset correction : 48Overread into Lead-In and Lead-Out : NoFill up missing offset samples with silence : YesDelete leading and trailing silent blocks : NoNull samples used in CRC calculations : YesUsed interface : Native Win32 interface for Win NT & 2000Gap handling : Appended to previous track

Used output format : User Defined EncoderSelected bitrate : 320 kBit/sQuality : HighAdd ID3 tag : NoCommand line compressor : D:\ЦVRIGT\Exact Audio Copy\Flac\flac.exe

TOC of the extracted CD

Track | Start | Length | Start sector | End sector --------------------------------------------------------- 1 | 0:00.00 | 3:00.39 | 0 | 13538 2 | 3:00.39 | 3:04.48 | 13539 | 27386 3 | 6:05.12 | 3:09.74 | 27387 | 41635 4 | 9:15.11 | 3:23.68 | 41636 | 56928 5 | 12:39.04 | 2:53.48 | 56929 | 69951 6 | 15:32.52 | 2:55.54 | 69952 | 83130 7 | 18:28.31 | 3:17.30 | 83131 | 97935 8 | 21:45.61 | 2:55.59 | 97936 | 111119 9 | 24:41.45 | 2:58.20 | 111120 | 124489 10 | 27:39.65 | 2:38.74 | 124490 | 136413 11 | 30:18.64 | 2:35.24 | 136414 | 148062 12 | 32:54.13 | 2:59.39 | 148063 | 161526 13 | 35:53.52 | 3:25.14 | 161527 | 176915 14 | 39:18.66 | 3:25.53 | 176916 | 192343 15 | 42:44.44 | 3:13.52 | 192344 | 206870 16 | 45:58.21 | 3:17.63 | 206871 | 221708 17 | 49:16.09 | 2:30.06 | 221709 | 232964 18 | 51:46.15 | 3:12.28 | 232965 | 247392 19 | 54:58.43 | 2:43.52 | 247393 | 259669 20 | 57:42.20 | 3:20.53 | 259670 | 274722

Track 1

Filename D:\MUSIK\00. EAC Rips\Gene Krupa - - Drums Drums Drums\01 - Drummin' Man.wav

Pre-gap length 0:00:02.00

Peak level 81.1 % Track quality 100.0 % Test CRC 3E725140 Copy CRC 3E725140 Cannot be verified as accurate (confidence 2) [424B191C], AccurateRip returned [D5BF740E] Copy OK

Track 2

Filename D:\MUSIK\00. EAC Rips\Gene Krupa - - Drums Drums Drums\02 - Leave Us Leap.wav

Pre-gap length 0:00:03.78

Peak level 69.0 % Track quality 99.9 % Test CRC 8680D2AC Copy CRC 8680D2AC Cannot be verified as accurate (confidence 2) [0A8E36AF], AccurateRip returned [2CE68493] Copy OK

Track 3

Filename D:\MUSIK\00. EAC Rips\Gene Krupa - - Drums Drums Drums\03 - Drum Boogie.wav

Pre-gap length 0:00:03.82

Peak level 80.3 % Track quality 100.0 % Test CRC BA895AAD Copy CRC BA895AAD Cannot be verified as accurate (confidence 2) [D6CE01E9], AccurateRip returned [36147241] Copy OK

Track 4

Filename D:\MUSIK\00. EAC Rips\Gene Krupa - - Drums Drums Drums\04 - Boogie Blues.wav

Pre-gap length 0:00:03.82

Peak level 80.4 % Track quality 100.0 % Test CRC 8F6173EA Copy CRC 8F6173EA Cannot be verified as accurate (confidence 2) [E96329C7], AccurateRip returned [D8E38A67] Copy OK

Track 5

Filename D:\MUSIK\00. EAC Rips\Gene Krupa - - Drums Drums Drums\05 - Bolero At The Savoy.wav

Pre-gap length 0:00:03.78

Peak level 80.8 % Track quality 100.0 % Test CRC E02E69CD Copy CRC E02E69CD Cannot be verified as accurate (confidence 2) [721AD747], AccurateRip returned [BFF2346B] Copy OK

Track 6

Filename D:\MUSIK\00. EAC Rips\Gene Krupa - - Drums Drums Drums\06 - Lover.wav

Pre-gap length 0:00:03.77

Peak level 88.1 % Track quality 100.0 % Test CRC FCF93D94 Copy CRC FCF93D94 Cannot be verified as accurate (confidence 2) [E1020500], AccurateRip returned [E8788EA0] Copy OK

Track 7

Filename D:\MUSIK\00. EAC Rips\Gene Krupa - - Drums Drums Drums\07 - Massachusetts.wav

Pre-gap length 0:00:03.77

Peak level 63.1 % Track quality 100.0 % Test CRC 285ECA59 Copy CRC 285ECA59 Cannot be verified as accurate (confidence 2) [C941455D], AccurateRip returned [8BAA5DFD] Copy OK

Track 8

Filename D:\MUSIK\00. EAC Rips\Gene Krupa - - Drums Drums Drums\08 - Symphony In Riffs.wav

Pre-gap length 0:00:03.80

Peak level 90.8 % Track quality 100.0 % Test CRC 703AA02A Copy CRC 703AA02A Cannot be verified as accurate (confidence 2) [D400F986], AccurateRip returned [D23FA9E6] Copy OK

Track 9

Filename D:\MUSIK\00. EAC Rips\Gene Krupa - - Drums Drums Drums\09 - Opus One.wav

Pre-gap length 0:00:03.81

Peak level 56.9 % Track quality 100.0 % Test CRC 3431CEC5 Copy CRC 3431CEC5 Cannot be verified as accurate (confidence 2) [380E01D5], AccurateRip returned [A73A7C95] Copy OK

Track 10

Filename D:\MUSIK\00. EAC Rips\Gene Krupa - - Drums Drums Drums\10 - After You've Gone.wav

Pre-gap length 0:00:03.78

Peak level 68.3 % Track quality 100.0 % Test CRC 2C4D029B Copy CRC 2C4D029B Cannot be verified as accurate (confidence 2) [A7FA0505], AccurateRip returned [FF59E881] Copy OK

Track 11

Filename D:\MUSIK\00. EAC Rips\Gene Krupa - - Drums Drums Drums\11 - Do You Wanna Jump, Children .wav

Pre-gap length 0:00:03.78

Peak level 87.9 % Track quality 100.0 % Test CRC ACA2A88D Copy CRC ACA2A88D Cannot be verified as accurate (confidence 2) [70D4AAA7], AccurateRip returned [0B9477CF] Copy OK

Track 12

Filename D:\MUSIK\00. EAC Rips\Gene Krupa - - Drums Drums Drums\12 - Tuxedo Junction.wav

Pre-gap length 0:00:03.78

Peak level 67.1 % Track quality 100.0 % Test CRC 587792E1 Copy CRC 587792E1 Cannot be verified as accurate (confidence 2) [224D6A8A], AccurateRip returned [DB92A9BA] Copy OK

Track 13

Filename D:\MUSIK\00. EAC Rips\Gene Krupa - - Drums Drums Drums\13 - Boog-it.wav

Pre-gap length 0:00:03.81

Peak level 86.4 % Track quality 99.9 % Test CRC 07C1AF9C Copy CRC 07C1AF9C Cannot be verified as accurate (confidence 2) [AF0E3C29], AccurateRip returned [1A2156C1] Copy OK

Track 14

Filename D:\MUSIK\00. EAC Rips\Gene Krupa - - Drums Drums Drums\14 - Body & Soul.wav

Pre-gap length 0:00:03.77

Peak level 68.7 % Track quality 100.0 % Test CRC 50D81168 Copy CRC 50D81168 Cannot be verified as accurate (confidence 2) [E3B4E406], AccurateRip returned [5F45382A] Copy OK

Track 15

Filename D:\MUSIK\00. EAC Rips\Gene Krupa - - Drums Drums Drums\15 - That's What You Think.wav

Pre-gap length 0:00:03.76

Peak level 58.2 % Track quality 100.0 % Test CRC D9289DD6 Copy CRC D9289DD6 Cannot be verified as accurate (confidence 2) [3A21D501], AccurateRip returned [B2743209] Copy OK

Track 16

Filename D:\MUSIK\00. EAC Rips\Gene Krupa - - Drums Drums Drums\16 - Wire Brush Stomp.wav

Pre-gap length 0:00:03.78

Peak level 60.4 % Track quality 100.0 % Test CRC 0929CF32 Copy CRC 0929CF32 Cannot be verified as accurate (confidence 2) [48A86CCC], AccurateRip returned [A853BAD8] Copy OK

Track 17

Filename D:\MUSIK\00. EAC Rips\Gene Krupa - - Drums Drums Drums\17 - Nagasaki.wav

Pre-gap length 0:00:03.77

Peak level 66.6 % Track quality 99.9 % Test CRC 7FADEFBE Copy CRC 7FADEFBE Cannot be verified as accurate (confidence 2) [FB1B80B5], AccurateRip returned [3F6859F9] Copy OK

Track 18

Filename D:\MUSIK\00. EAC Rips\Gene Krupa - - Drums Drums Drums\18 - Disk Jockey Jump.wav

Pre-gap length 0:00:03.77

Peak level 63.9 % Track quality 100.0 % Test CRC 6B38666F Copy CRC 6B38666F Cannot be verified as accurate (confidence 2) [ACD7F933], AccurateRip returned [AE2CAD4F] Copy OK

Track 19

Filename D:\MUSIK\00. EAC Rips\Gene Krupa - - Drums Drums Drums\19 - Rhumboogie.wav

Pre-gap length 0:00:03.78

Peak level 49.9 % Track quality 99.9 % Test CRC 99B2277C Copy CRC 99B2277C Cannot be verified as accurate (confidence 2) [71FF7EE4], AccurateRip returned [B23C4800] Copy OK

Track 20

Filename D:\MUSIK\00. EAC Rips\Gene Krupa - - Drums Drums Drums\20 - How High The Moon.wav

Pre-gap length 0:00:03.76

Peak level 62.2 % Track quality 100.0 % Test CRC 03BC96B3 Copy CRC 03BC96B3 Cannot be verified as accurate (confidence 2) [D8B26BE7], AccurateRip returned [32940068] Copy OK

No tracks could be verified as accurateYou may have a different pressing from the one(s) in the database

No errors occurred

End of status report
 
REM DATA 2002REM GENRE JazzREM DISCID 100E4E14REM COMMENT "ExactAudioCopy v0.99pb3"FILE "01 - Drummin' Man.flac" WAVE TRACK 01 AUDIO INDEX 01 00:00:00 TRACK 02 AUDIO INDEX 00 02:56:55FILE "02 - Leave Us Leap.flac" WAVE INDEX 01 00:00:00 TRACK 03 AUDIO INDEX 00 03:00:61FILE "03 - Drum Boogie.flac" WAVE INDEX 01 00:00:00 TRACK 04 AUDIO INDEX 00 03:06:12FILE "04 - Boogie Blues.flac" WAVE INDEX 01 00:00:00 TRACK 05 AUDIO INDEX 00 03:20:09FILE "05 - Bolero At The Savoy.flac" WAVE INDEX 01 00:00:00 TRACK 06 AUDIO INDEX 00 02:49:65FILE "06 - Lover.flac" WAVE INDEX 01 00:00:00 TRACK 07 AUDIO INDEX 00 02:51:71FILE "07 - Massachusetts.flac" WAVE INDEX 01 00:00:00 TRACK 08 AUDIO INDEX 00 03:13:45FILE "08 - Symphony In Riffs.flac" WAVE INDEX 01 00:00:00 TRACK 09 AUDIO INDEX 00 02:51:73FILE "09 - Opus One.flac" WAVE INDEX 01 00:00:00 TRACK 10 AUDIO INDEX 00 02:54:36FILE "10 - After You've Gone.flac" WAVE INDEX 01 00:00:00 TRACK 11 AUDIO INDEX 00 02:35:15FILE "11 - Do You Wanna Jump, Children.flac" WAVE INDEX 01 00:00:00 TRACK 12 AUDIO INDEX 00 02:31:40FILE "12 - Tuxedo Junction.flac" WAVE INDEX 01 00:00:00 TRACK 13 AUDIO INDEX 00 02:55:53FILE "13 - Boog-It.flac" WAVE INDEX 01 00:00:00 TRACK 14 AUDIO INDEX 00 03:21:31FILE "14 - Body & Soul.flac" WAVE INDEX 01 00:00:00 TRACK 15 AUDIO INDEX 00 03:21:71FILE "15 - That's What You Think.flac" WAVE INDEX 01 00:00:00 TRACK 16 AUDIO INDEX 00 03:09:68FILE "16 - Wire Brush Stomp.flac" WAVE INDEX 01 00:00:00 TRACK 17 AUDIO INDEX 00 03:14:05FILE "17 - Nagasaki.flac" WAVE INDEX 01 00:00:00 TRACK 18 AUDIO INDEX 00 02:26:23FILE "18 - Disk Jockey Jump.flac" WAVE INDEX 01 00:00:00 TRACK 19 AUDIO INDEX 00 03:08:44FILE "19 - Rhumboogie.flac" WAVE INDEX 01 00:00:00 TRACK 20 AUDIO INDEX 00 02:39:70FILE "20 - How High The Moon.flac" WAVE INDEX 01 00:00:00
 
[CUETools log; Date: 09.01.2012 20:19:04; Version: 2.0.9][CTDB TOCID: ohyhj0mbA1pbgXb6nEZdybrUy.Y-] disk not present in database.[AccurateRip ID: 002c046b-0284e9f8-100e4e14] found.Track [ CRC ] Status 01 [424b191c] (0/2) No match 02 [0a8e36af] (0/2) No match 03 [d6ce01e9] (0/2) No match 04 [e96329c7] (0/2) No match 05 [721ad747] (0/2) No match 06 [e1020500] (0/2) No match 07 [c941455d] (0/2) No match 08 [d400f986] (0/2) No match 09 [380e01d5] (0/2) No match 10 [a7fa0505] (0/2) No match 11 [70d4aaa7] (0/2) No match 12 [224d6a8a] (0/2) No match 13 [af0e3c29] (0/2) No match 14 [e3b4e406] (0/2) No match 15 [3a21d501] (0/2) No match 16 [48a86ccc] (0/2) No match 17 [fb1b80b5] (0/2) No match 18 [acd7f933] (0/2) No match 19 [71ff7ee4] (0/2) No match 20 [d8b26be7] (0/2) No matchOffsetted by 652: 01 [d5bf740e] (2/2) Accurately ripped 02 [2ce68493] (2/2) Accurately ripped 03 [36147241] (2/2) Accurately ripped 04 [d8e38a67] (2/2) Accurately ripped 05 [bff2346b] (2/2) Accurately ripped 06 [e8788ea0] (2/2) Accurately ripped 07 [8baa5dfd] (2/2) Accurately ripped 08 [d23fa9e6] (2/2) Accurately ripped 09 [a73a7c95] (2/2) Accurately ripped 10 [ff59e881] (2/2) Accurately ripped 11 [0b9477cf] (2/2) Accurately ripped 12 [db92a9ba] (2/2) Accurately ripped 13 [1a2156c1] (2/2) Accurately ripped 14 [5f45382a] (2/2) Accurately ripped 15 [b2743209] (2/2) Accurately ripped 16 [a853bad8] (2/2) Accurately ripped 17 [3f6859f9] (2/2) Accurately ripped 18 [ae2cad4f] (2/2) Accurately ripped 19 [b23c4800] (2/2) Accurately ripped 20 [32940068] (2/2) Accurately ripped

Track Peak [ CRC32 ] [W/O NULL] [ LOG ] -- 90,8 [62E49199] [12256A1F] 01 81,1 [3E725140] [CAF71D16] CRC32 02 69,0 [8680D2AC] [C096C512] CRC32 03 80,3 [BA895AAD] [AAFB4280] CRC32 04 80,4 [8F6173EA] [3E732ADB] CRC32 05 80,8 [E02E69CD] [96431B9A] CRC32 06 88,1 [FCF93D94] [AA48BA64] CRC32 07 63,1 [285ECA59] [59E9609A] CRC32 08 90,8 [703AA02A] [41057818] CRC32 09 56,9 [3431CEC5] [D0AE863E] CRC32 10 68,3 [2C4D029B] [49472028] CRC32 11 87,9 [ACA2A88D] [4A1E9CEE] CRC32 12 67,1 [587792E1] [4D8BC993] CRC32 13 86,3 [07C1AF9C] [1C2EC232] CRC32 14 68,7 [50D81168] [646D8C4F] CRC32 15 58,2 [D9289DD6] [07B63780] CRC32 16 60,4 [0929CF32] [581B15F8] CRC32 17 66,6 [7FADEFBE] [8036F28B] CRC32 18 63,9 [6B38666F] [38D2EC53] CRC32 19 49,9 [99B2277C] [DA1582C1] CRC32 20 62,2 [03BC96B3] [1CF76291] CRC32
This 20-song collection, evidently made up of radio airchecks that are effectively out of copyright overseas, makes a good companion to Sony's Gene Krupa hits and Anita O'Day/Roy Eldridge collections. It doesn't have "Let Me Off Uptown," but it does include O'Day's extraordinary "Boogie Blues," "Bolero at the Savoy," and "Massachusetts," and performances by scat-singing star Leo Watson. Further, Roy Eldridge is featured on at least half the cuts here in prominent solos, but the producers have also included tracks by the later Krupa line-ups, which included Charlie Ventura and Gerry Mulligan, working in leaner, more modern jazz surroundings. The sound quality is above average for the period, with minimal distortion and a clean, close sound. The drums, of course, are prominent (nowhere more so than on "Wire Brush Stomp"), but the solos by Eldridge and the other featured members of Krupa's various bands also come out loud and richly textured. Of the music itself, there's only one really weak link here, Krupa's much-too-fast treatment of the Richard Rodgers/Lorenz Hart waltz "Lover," and it is more than made up for by the presence of O'Day's singing on "That's What You Think." And it's all budget priced too.
~ by Bruce Eder


Трекер:  [ 28-Янв-2012 07:19 ]

  

Скачать .torrent

Размер .torrent файла 18 KB


Размер: 214 MB
Хэш (hash) релиза: a7210c6e5d366557a988e1ff0223bfbd47ef66c4

Еще никто не оставлял запись к записи скачать торрент Gene Krupa — Drums Drums Drums — 2002, FLAC . Будь первым!

!Обратная связь