Скачать через торрент музыку Jelly Roll Morton — The Pearls — 1988, FLAC бесплатно без регистрации torrent

Если у вас наблюдаются проблемы со скриншотами, переходом по ссылками, скачиванием торрентов - проблемы в блокировщике рекламы AdBlock. #хорошегоДня!


Статистика раздачи
Размер:  252 MB   |    Зарегистрирован:  5 лет 8 месяцев   |    .torrent скачан:  28 раз   |   
Раздают:  1  
   
Загрузка...
 
Автор Сообщение

Umakiro

avatar Umakiro


Jelly Roll Morton – The Pearls

Жанр: Dixieland, New Orleans Jazz
Год издания диска: 1988
Издатель (лейбл): Bluebird
Номер по каталогу: 6588-2-RB11
Аудиокодек: FLAC (*.flac)
Тип рипа: tracks+.cue
Битрейт аудио: lossless
Продолжительность: 72:47
Источник (релизер): найдено в сети
Наличие сканов в содержимом раздачи: сетевые картинки

Треклист:
01. Black Bottom Stomp (3:13)
02. Smokehouse Blues (3:26)
03. The Chant (3:11)
04. Sidewalk Blues (3:33)
05. Dead Man Blues (3:13)
06. Steamboat Stomp (3:07)
07. Grandpa's Spells (2:53)
08. Original Jelly Roll Blues (3:08)
09. Doctor Jazz (3:27)
10. Cannon Ball Blues (2:51)
11. The Pearls (3:25)
12. Wolverine Blues (3:19)
14. Georgia Swing (2:30)
15. Kansas City Stomps (2:54)
16. Shreveport Stomp (3:14)
17. Mournful Serenade (3:25)
18. Red Hot Pepper Stomp (3:10)
19. Deep Creek (3:28)
20. Freakish (2:55)
21. Tanktown Bump (3:09)
22. I Thought I Heard Buddy Bolden Say (3:13)
23. Winin' Boy Blues (3:12)
 
 
X Lossless Decoder version 20100911 (122.0)

XLD extraction logfile from 2010-09-14 00:47:49 -0400

Jelly Roll Morton / The Pearls

Used drive : HL-DT-ST DVDRW GA11N (revision KA15)

Use cdparanoia mode : YES (CDParanoia III 10.2 engine)Disable audio cache : OK for the drive with cache less than 2750KBMake use of C2 pointers : NORead offset correction : 667Max retry count : 100Gap status : Analyzed, Appended

TOC of the extracted CD Track | Start | Length | Start sector | End sector --------------------------------------------------------- 1 | 00:00:00 | 03:12:60 | 0 | 14459 2 | 03:12:60 | 03:26:08 | 14460 | 29917 3 | 06:38:68 | 03:11:17 | 29918 | 44259 4 | 09:50:10 | 03:32:40 | 44260 | 60199 5 | 13:22:50 | 03:13:35 | 60200 | 74709 6 | 16:36:10 | 03:07:28 | 74710 | 88762 7 | 19:43:38 | 02:53:27 | 88763 | 101764 8 | 22:36:65 | 03:07:73 | 101765 | 115862 9 | 25:44:63 | 03:26:60 | 115863 | 131372 10 | 29:11:48 | 02:51:12 | 131373 | 144209 11 | 32:02:60 | 03:24:63 | 144210 | 159572 12 | 35:27:48 | 03:18:57 | 159573 | 174479 13 | 38:46:30 | 02:50:03 | 174480 | 187232 14 | 41:36:33 | 02:30:22 | 187233 | 198504 15 | 44:06:55 | 02:53:43 | 198505 | 211522 16 | 47:00:23 | 03:14:27 | 211523 | 226099 17 | 50:14:50 | 03:25:05 | 226100 | 241479 18 | 53:39:55 | 03:09:40 | 241480 | 255694 19 | 56:49:20 | 03:27:50 | 255695 | 271269 20 | 60:16:70 | 02:55:35 | 271270 | 284429 21 | 63:12:30 | 03:09:35 | 284430 | 298639 22 | 66:21:65 | 03:13:33 | 298640 | 313147 23 | 69:35:23 | 03:11:60 | 313148 | 327532

List of alternate offset correction values # | Absolute | Relative | Confidence ------------------------------------------ 1 | 838 | 171 | 6

Track 01 Filename : /Users/pyouker/Desktop/Jelly Roll Morton - The Pearls(flac)/01 - Black Bottom Stomp.flac Pre-gap length : 00:02:00

CRC32 hash (test run) : D1A3971A CRC32 hash : D1A3971A CRC32 hash (skip zero) : F60B5CCC AccurateRip signature : C7C60574 ->Accurately ripped! (confidence 2) Statistics Read error : 0 Skipped (treated as error) : 0 Edge jitter error (maybe fixed) : 1 Atom jitter error (maybe fixed) : 1 Drift error (maybe fixed) : 0 Dropped bytes error (maybe fixed) : 1 Duplicated bytes error (maybe fixed) : 1 Inconsistency in error sectors : 0

Track 02 Filename : /Users/pyouker/Desktop/Jelly Roll Morton - The Pearls(flac)/02 - Smokehouse Blues.flac Pre-gap length : 00:01:72

CRC32 hash (test run) : E41B904B CRC32 hash : E41B904B CRC32 hash (skip zero) : FC8FD414 AccurateRip signature : E1239418 ->Accurately ripped! (confidence 2) Statistics Read error : 0 Skipped (treated as error) : 0 Edge jitter error (maybe fixed) : 1 Atom jitter error (maybe fixed) : 0 Drift error (maybe fixed) : 0 Dropped bytes error (maybe fixed) : 1 Duplicated bytes error (maybe fixed) : 1 Inconsistency in error sectors : 0

Track 03 Filename : /Users/pyouker/Desktop/Jelly Roll Morton - The Pearls(flac)/03 - The Chant.flac Pre-gap length : 00:01:28

CRC32 hash (test run) : CE3F2DFF CRC32 hash : CE3F2DFF CRC32 hash (skip zero) : 7C747C2E AccurateRip signature : 63C6B299 ->Accurately ripped! (confidence 2) Statistics Read error : 0 Skipped (treated as error) : 0 Edge jitter error (maybe fixed) : 0 Atom jitter error (maybe fixed) : 0 Drift error (maybe fixed) : 0 Dropped bytes error (maybe fixed) : 0 Duplicated bytes error (maybe fixed) : 0 Inconsistency in error sectors : 0

Track 04 Filename : /Users/pyouker/Desktop/Jelly Roll Morton - The Pearls(flac)/04 - Sidewalk Blues.flac Pre-gap length : 00:01:20

CRC32 hash (test run) : C6CE6F28 CRC32 hash : C6CE6F28 CRC32 hash (skip zero) : DE9393B7 AccurateRip signature : 8CB8E13F ->Accurately ripped! (confidence 2) Statistics Read error : 0 Skipped (treated as error) : 0 Edge jitter error (maybe fixed) : 0 Atom jitter error (maybe fixed) : 0 Drift error (maybe fixed) : 0 Dropped bytes error (maybe fixed) : 0 Duplicated bytes error (maybe fixed) : 0 Inconsistency in error sectors : 0

Track 05 Filename : /Users/pyouker/Desktop/Jelly Roll Morton - The Pearls(flac)/05 - Dead Man Blues.flac Pre-gap length : 00:01:50

CRC32 hash (test run) : D688CEDD CRC32 hash : D688CEDD CRC32 hash (skip zero) : A7EB07C0 AccurateRip signature : 88A732AD ->Accurately ripped! (confidence 2) Statistics Read error : 0 Skipped (treated as error) : 0 Edge jitter error (maybe fixed) : 0 Atom jitter error (maybe fixed) : 0 Drift error (maybe fixed) : 0 Dropped bytes error (maybe fixed) : 0 Duplicated bytes error (maybe fixed) : 0 Inconsistency in error sectors : 0

Track 06 Filename : /Users/pyouker/Desktop/Jelly Roll Morton - The Pearls(flac)/06 - Steamboat Stomp.flac Pre-gap length : 00:01:27

CRC32 hash (test run) : 2E3E7BD3 CRC32 hash : 2E3E7BD3 CRC32 hash (skip zero) : 9DEB209D AccurateRip signature : E9FBF497 ->Accurately ripped! (confidence 2) Statistics Read error : 0 Skipped (treated as error) : 0 Edge jitter error (maybe fixed) : 0 Atom jitter error (maybe fixed) : 0 Drift error (maybe fixed) : 0 Dropped bytes error (maybe fixed) : 0 Duplicated bytes error (maybe fixed) : 0 Inconsistency in error sectors : 0

Track 07 Filename : /Users/pyouker/Desktop/Jelly Roll Morton - The Pearls(flac)/07 - Grandpa's Spells.flac Pre-gap length : 00:01:33

CRC32 hash (test run) : A85DAA0B CRC32 hash : A85DAA0B CRC32 hash (skip zero) : 08514A47 AccurateRip signature : DAF9BC4A ->Accurately ripped! (confidence 2) Statistics Read error : 0 Skipped (treated as error) : 0 Edge jitter error (maybe fixed) : 0 Atom jitter error (maybe fixed) : 0 Drift error (maybe fixed) : 0 Dropped bytes error (maybe fixed) : 0 Duplicated bytes error (maybe fixed) : 0 Inconsistency in error sectors : 0

Track 08 Filename : /Users/pyouker/Desktop/Jelly Roll Morton - The Pearls(flac)/08 - Original Jelly Roll Blues.flac Pre-gap length : 00:01:15

CRC32 hash (test run) : 41418D2D CRC32 hash : 41418D2D CRC32 hash (skip zero) : 1027E4DC AccurateRip signature : 8CA31279 ->Accurately ripped! (confidence 2) Statistics Read error : 0 Skipped (treated as error) : 0 Edge jitter error (maybe fixed) : 0 Atom jitter error (maybe fixed) : 0 Drift error (maybe fixed) : 0 Dropped bytes error (maybe fixed) : 0 Duplicated bytes error (maybe fixed) : 0 Inconsistency in error sectors : 0

Track 09 Filename : /Users/pyouker/Desktop/Jelly Roll Morton - The Pearls(flac)/09 - Doctor Jazz.flac Pre-gap length : 00:00:43

CRC32 hash (test run) : E66A0C7E CRC32 hash : E66A0C7E CRC32 hash (skip zero) : 763DB35E AccurateRip signature : 84CEDB86 ->Accurately ripped! (confidence 2) Statistics Read error : 0 Skipped (treated as error) : 0 Edge jitter error (maybe fixed) : 0 Atom jitter error (maybe fixed) : 0 Drift error (maybe fixed) : 0 Dropped bytes error (maybe fixed) : 0 Duplicated bytes error (maybe fixed) : 0 Inconsistency in error sectors : 0

Track 10 Filename : /Users/pyouker/Desktop/Jelly Roll Morton - The Pearls(flac)/10 - Cannon Ball Blues.flac Pre-gap length : 00:01:45

CRC32 hash (test run) : BF7B5F5D CRC32 hash : BF7B5F5D CRC32 hash (skip zero) : 242DDBC3 AccurateRip signature : F3BF861F ->Accurately ripped! (confidence 2) Statistics Read error : 0 Skipped (treated as error) : 0 Edge jitter error (maybe fixed) : 0 Atom jitter error (maybe fixed) : 0 Drift error (maybe fixed) : 0 Dropped bytes error (maybe fixed) : 0 Duplicated bytes error (maybe fixed) : 0 Inconsistency in error sectors : 0

Track 11 Filename : /Users/pyouker/Desktop/Jelly Roll Morton - The Pearls(flac)/11 - The Pearls.flac Pre-gap length : 00:01:20

CRC32 hash (test run) : C6D3B35F CRC32 hash : C6D3B35F CRC32 hash (skip zero) : 7609EA3D AccurateRip signature : 684C8062 ->Accurately ripped! (confidence 2) Statistics Read error : 0 Skipped (treated as error) : 0 Edge jitter error (maybe fixed) : 0 Atom jitter error (maybe fixed) : 0 Drift error (maybe fixed) : 0 Dropped bytes error (maybe fixed) : 0 Duplicated bytes error (maybe fixed) : 0 Inconsistency in error sectors : 0

Track 12 Filename : /Users/pyouker/Desktop/Jelly Roll Morton - The Pearls(flac)/12 - Wolverine Blues.flac Pre-gap length : 00:01:03

CRC32 hash (test run) : B9278114 CRC32 hash : B9278114 CRC32 hash (skip zero) : 98190130 AccurateRip signature : 93979BC9 ->Accurately ripped! (confidence 2) Statistics Read error : 0 Skipped (treated as error) : 0 Edge jitter error (maybe fixed) : 1 Atom jitter error (maybe fixed) : 0 Drift error (maybe fixed) : 0 Dropped bytes error (maybe fixed) : 1 Duplicated bytes error (maybe fixed) : 1 Inconsistency in error sectors : 0

Track 13 Filename : /Users/pyouker/Desktop/Jelly Roll Morton - The Pearls(flac)/13 - Mr. Jelly Lord.flac

CRC32 hash (test run) : 664F9575 CRC32 hash : 664F9575 CRC32 hash (skip zero) : 4EF87AA0 AccurateRip signature : DBBC8CEE ->Accurately ripped! (confidence 2) Statistics Read error : 0 Skipped (treated as error) : 0 Edge jitter error (maybe fixed) : 0 Atom jitter error (maybe fixed) : 0 Drift error (maybe fixed) : 0 Dropped bytes error (maybe fixed) : 0 Duplicated bytes error (maybe fixed) : 0 Inconsistency in error sectors : 0

Track 14 Filename : /Users/pyouker/Desktop/Jelly Roll Morton - The Pearls(flac)/14 - Georgia Swing.flac Pre-gap length : 00:01:43

CRC32 hash (test run) : 2FE0E49C CRC32 hash : 2FE0E49C CRC32 hash (skip zero) : 1498C77E AccurateRip signature : EA68F239 ->Accurately ripped! (confidence 2) Statistics Read error : 0 Skipped (treated as error) : 0 Edge jitter error (maybe fixed) : 0 Atom jitter error (maybe fixed) : 0 Drift error (maybe fixed) : 0 Dropped bytes error (maybe fixed) : 0 Duplicated bytes error (maybe fixed) : 0 Inconsistency in error sectors : 0

Track 15 Filename : /Users/pyouker/Desktop/Jelly Roll Morton - The Pearls(flac)/15 - Kansas City Stomps.flac Pre-gap length : 00:01:10

CRC32 hash (test run) : ED1C76DD CRC32 hash : ED1C76DD CRC32 hash (skip zero) : A7A6297B AccurateRip signature : 6034F916 ->Accurately ripped! (confidence 2) Statistics Read error : 0 Skipped (treated as error) : 0 Edge jitter error (maybe fixed) : 0 Atom jitter error (maybe fixed) : 0 Drift error (maybe fixed) : 0 Dropped bytes error (maybe fixed) : 0 Duplicated bytes error (maybe fixed) : 0 Inconsistency in error sectors : 0

Track 16 Filename : /Users/pyouker/Desktop/Jelly Roll Morton - The Pearls(flac)/16 - Shreveport Stomp.flac Pre-gap length : 00:01:18

CRC32 hash (test run) : E6FC43BE CRC32 hash : E6FC43BE CRC32 hash (skip zero) : 6FAEDFFF AccurateRip signature : AE2AE264 ->Accurately ripped! (confidence 2) Statistics Read error : 0 Skipped (treated as error) : 0 Edge jitter error (maybe fixed) : 0 Atom jitter error (maybe fixed) : 0 Drift error (maybe fixed) : 0 Dropped bytes error (maybe fixed) : 0 Duplicated bytes error (maybe fixed) : 0 Inconsistency in error sectors : 0

Track 17 Filename : /Users/pyouker/Desktop/Jelly Roll Morton - The Pearls(flac)/17 - Mournful Serenade.flac

CRC32 hash (test run) : 88A56216 CRC32 hash : 88A56216 CRC32 hash (skip zero) : 1A580AE2 AccurateRip signature : 9B32C98B ->Accurately ripped! (confidence 2) Statistics Read error : 0 Skipped (treated as error) : 0 Edge jitter error (maybe fixed) : 0 Atom jitter error (maybe fixed) : 0 Drift error (maybe fixed) : 0 Dropped bytes error (maybe fixed) : 0 Duplicated bytes error (maybe fixed) : 0 Inconsistency in error sectors : 0

Track 18 Filename : /Users/pyouker/Desktop/Jelly Roll Morton - The Pearls(flac)/18 - Red Hot Pepper Stomp.flac Pre-gap length : 00:02:22

CRC32 hash (test run) : D3C4286E CRC32 hash : D3C4286E CRC32 hash (skip zero) : 291B80D3 AccurateRip signature : B6FD4272 ->Accurately ripped! (confidence 2) Statistics Read error : 0 Skipped (treated as error) : 0 Edge jitter error (maybe fixed) : 0 Atom jitter error (maybe fixed) : 0 Drift error (maybe fixed) : 0 Dropped bytes error (maybe fixed) : 0 Duplicated bytes error (maybe fixed) : 0 Inconsistency in error sectors : 0

Track 19 Filename : /Users/pyouker/Desktop/Jelly Roll Morton - The Pearls(flac)/19 - Deep Creek.flac Pre-gap length : 00:01:50

CRC32 hash (test run) : 5ADBBD9B CRC32 hash : 5ADBBD9B CRC32 hash (skip zero) : ED60E443 AccurateRip signature : EA7B407F ->Accurately ripped! (confidence 2) Statistics Read error : 0 Skipped (treated as error) : 0 Edge jitter error (maybe fixed) : 0 Atom jitter error (maybe fixed) : 0 Drift error (maybe fixed) : 0 Dropped bytes error (maybe fixed) : 0 Duplicated bytes error (maybe fixed) : 0 Inconsistency in error sectors : 0

Track 20 Filename : /Users/pyouker/Desktop/Jelly Roll Morton - The Pearls(flac)/20 - Freakish.flac Pre-gap length : 00:01:02

CRC32 hash (test run) : 5C3A2407 CRC32 hash : 5C3A2407 CRC32 hash (skip zero) : FEFD27C1 AccurateRip signature : ED63D504 ->Accurately ripped! (confidence 2) Statistics Read error : 0 Skipped (treated as error) : 0 Edge jitter error (maybe fixed) : 0 Atom jitter error (maybe fixed) : 0 Drift error (maybe fixed) : 0 Dropped bytes error (maybe fixed) : 0 Duplicated bytes error (maybe fixed) : 0 Inconsistency in error sectors : 0

Track 21 Filename : /Users/pyouker/Desktop/Jelly Roll Morton - The Pearls(flac)/21 - Tanktown Bump.flac Pre-gap length : 00:01:27

CRC32 hash (test run) : AC6B28DD CRC32 hash : AC6B28DD CRC32 hash (skip zero) : 0C435306 AccurateRip signature : A8153CC7 ->Accurately ripped! (confidence 2) Statistics Read error : 0 Skipped (treated as error) : 0 Edge jitter error (maybe fixed) : 0 Atom jitter error (maybe fixed) : 0 Drift error (maybe fixed) : 0 Dropped bytes error (maybe fixed) : 0 Duplicated bytes error (maybe fixed) : 0 Inconsistency in error sectors : 0

Track 22 Filename : /Users/pyouker/Desktop/Jelly Roll Morton - The Pearls(flac)/22 - I Thought I Heard Buddy Bolden Say.flac Pre-gap length : 00:00:16

CRC32 hash (test run) : 01AF52C4 CRC32 hash : 01AF52C4 CRC32 hash (skip zero) : D49FF529 AccurateRip signature : 5479CCD9 ->Accurately ripped! (confidence 2) Statistics Read error : 0 Skipped (treated as error) : 0 Edge jitter error (maybe fixed) : 0 Atom jitter error (maybe fixed) : 0 Drift error (maybe fixed) : 0 Dropped bytes error (maybe fixed) : 0 Duplicated bytes error (maybe fixed) : 0 Inconsistency in error sectors : 0

Track 23 Filename : /Users/pyouker/Desktop/Jelly Roll Morton - The Pearls(flac)/23 - Winin' Boy Blues.flac Pre-gap length : 00:01:45

CRC32 hash (test run) : 61CC855C CRC32 hash : 61CC855C CRC32 hash (skip zero) : F918BB3C AccurateRip signature : 4D5A6B9A ->Accurately ripped! (confidence 4) (matched with the different offset correction value; calculated using an additional offset of 171; the signature after correction is: 7E93ADE6) Statistics Read error : 0 Skipped (treated as error) : 0 Edge jitter error (maybe fixed) : 0 Atom jitter error (maybe fixed) : 0 Drift error (maybe fixed) : 0 Dropped bytes error (maybe fixed) : 0 Duplicated bytes error (maybe fixed) : 0 Inconsistency in error sectors : 0

No errors occurred

End of status report
 
TITLE "The Pearls"PERFORMER "Jelly Roll Morton"REM DATE "The Pearls"REM DISCID 5F110F17FILE "01 - Black Bottom Stomp.wav" WAVE TRACK 01 AUDIO TITLE "Black Bottom Stomp" INDEX 01 00:00:00 TRACK 02 AUDIO TITLE "Smokehouse Blues" INDEX 00 03:10:63FILE "02 - Smokehouse Blues.wav" WAVE INDEX 01 00:00:00 TRACK 03 AUDIO TITLE "The Chant" INDEX 00 03:24:55FILE "03 - The Chant.wav" WAVE INDEX 01 00:00:00 TRACK 04 AUDIO TITLE "Sidewalk Blues" INDEX 00 03:09:72FILE "04 - Sidewalk Blues.wav" WAVE INDEX 01 00:00:00 TRACK 05 AUDIO TITLE "Dead Man Blues" INDEX 00 03:30:65FILE "05 - Dead Man Blues.wav" WAVE INDEX 01 00:00:00 TRACK 06 AUDIO TITLE "Steamboat Stomp" INDEX 00 03:12:08FILE "06 - Steamboat Stomp.wav" WAVE INDEX 01 00:00:00 TRACK 07 AUDIO TITLE "Grandpa's Spells" INDEX 00 03:05:70FILE "07 - Grandpa's Spells.wav" WAVE INDEX 01 00:00:00 TRACK 08 AUDIO TITLE "Original Jelly Roll Blues" INDEX 00 02:52:12FILE "08 - Original Jelly Roll Blues.wav" WAVE INDEX 01 00:00:00 TRACK 09 AUDIO TITLE "Doctor Jazz" INDEX 00 03:07:30FILE "09 - Doctor Jazz.wav" WAVE INDEX 01 00:00:00 TRACK 10 AUDIO TITLE "Cannon Ball Blues" INDEX 00 03:25:15FILE "10 - Cannon Ball Blues.wav" WAVE INDEX 01 00:00:00 TRACK 11 AUDIO TITLE "The Pearls" INDEX 00 02:49:67FILE "11 - The Pearls.wav" WAVE INDEX 01 00:00:00 TRACK 12 AUDIO TITLE "Wolverine Blues" INDEX 00 03:23:60FILE "12 - Wolverine Blues.wav" WAVE INDEX 01 00:00:00FILE "13 - Mr. Jelly Lord.wav" WAVE TRACK 13 AUDIO TITLE "Mr. Jelly Lord" INDEX 01 00:00:00 TRACK 14 AUDIO TITLE "Georgia Swing" INDEX 00 02:48:35FILE "14 - Georgia Swing.wav" WAVE INDEX 01 00:00:00 TRACK 15 AUDIO TITLE "Kansas City Stomps" INDEX 00 02:29:12FILE "15 - Kansas City Stomps.wav" WAVE INDEX 01 00:00:00 TRACK 16 AUDIO TITLE "Shreveport Stomp" INDEX 00 02:52:25FILE "16 - Shreveport Stomp.wav" WAVE INDEX 01 00:00:00FILE "17 - Mournful Serenade.wav" WAVE TRACK 17 AUDIO TITLE "Mournful Serenade" INDEX 01 00:00:00 TRACK 18 AUDIO TITLE "Red Hot Pepper Stomp" INDEX 00 03:22:58FILE "18 - Red Hot Pepper Stomp.wav" WAVE INDEX 01 00:00:00 TRACK 19 AUDIO TITLE "Deep Creek" INDEX 00 03:07:65FILE "19 - Deep Creek.wav" WAVE INDEX 01 00:00:00 TRACK 20 AUDIO TITLE "Freakish" INDEX 00 03:26:48FILE "20 - Freakish.wav" WAVE INDEX 01 00:00:00 TRACK 21 AUDIO TITLE "Tanktown Bump" INDEX 00 02:54:08FILE "21 - Tanktown Bump.wav" WAVE INDEX 01 00:00:00 TRACK 22 AUDIO TITLE "I Thought I Heard Buddy Bolden Say" INDEX 00 03:09:19FILE "22 - I Thought I Heard Buddy Bolden Say.wav" WAVE INDEX 01 00:00:00 TRACK 23 AUDIO TITLE "Winin' Boy Blues" INDEX 00 03:11:63FILE "23 - Winin' Boy Blues.wav" WAVE INDEX 01 00:00:00
 
[CUETools log; Date: 10.01.2012 0:09:20; Version: 2.0.9][CTDB TOCID: mkZkMA6LHzVCRW.pWEXqhIhcYps-] found. [ CTDBID ] Status [eef4b6ad] (1/1) Accurately ripped[AccurateRip ID: 003c59bc-03ea0ab7-5f110f17] found.Track [ CRC ] Status 01 [c7c60574] (03/11) Accurately ripped 02 [e1239418] (03/11) Accurately ripped 03 [63c6b299] (03/11) Accurately ripped 04 [8cb8e13f] (03/11) Accurately ripped 05 [88a732ad] (03/11) Accurately ripped 06 [e9fbf497] (03/11) Accurately ripped 07 [daf9bc4a] (03/11) Accurately ripped 08 [8ca31279] (03/11) Accurately ripped 09 [84cedb86] (03/11) Accurately ripped 10 [f3bf861f] (03/11) Accurately ripped 11 [684c8062] (03/11) Accurately ripped 12 [93979bc9] (03/11) Accurately ripped 13 [dbbc8cee] (03/11) Accurately ripped 14 [ea68f239] (03/11) Accurately ripped 15 [6034f916] (03/09) Accurately ripped 16 [ae2ae264] (03/11) Accurately ripped 17 [9b32c98b] (03/11) Accurately ripped 18 [b6fd4272] (03/11) Accurately ripped 19 [ea7b407f] (03/09) Accurately ripped 20 [ed63d504] (03/09) Accurately ripped 21 [a8153cc7] (03/09) Accurately ripped 22 [5479ccd9] (03/09) Accurately ripped 23 [4d5a6b9a] (02/08) Accurately rippedOffsetted by 171: 01 [75692c08] (06/11) Accurately ripped 02 [d088ea7b] (06/11) Accurately ripped 03 [8980ba6b] (06/11) Accurately ripped 04 [3e528a3f] (06/11) Accurately ripped 05 [feb8d66f] (06/11) Accurately ripped 06 [48412506] (06/11) Accurately ripped 07 [4b6019fe] (06/11) Accurately ripped 08 [50ac1f39] (06/11) Accurately ripped 09 [04e1f5d6] (06/11) Accurately ripped 10 [02717069] (06/11) Accurately ripped 11 [c217a305] (06/11) Accurately ripped 12 [aa23e8b9] (06/11) Accurately ripped 13 [a590874b] (06/11) Accurately ripped 14 [c110ac56] (06/11) Accurately ripped 15 [5477a90f] (06/09) Accurately ripped 16 [09b2a99b] (06/11) Accurately ripped 17 [2494992c] (06/11) Accurately ripped 18 [d881af6f] (06/11) Accurately ripped 19 [a8654b0d] (06/09) Accurately ripped 20 [43093cc1] (06/09) Accurately ripped 21 [1e5dc537] (06/09) Accurately ripped 22 [c13eecea] (06/09) Accurately ripped 23 [7e93ade6] (04/08) Accurately ripped

Track Peak [ CRC32 ] [W/O NULL] -- 100,0 [270FC2BB] [8EB2DC6A] 01 62,5 [D1A3971A] [F60B5CCC] 02 61,9 [E41B904B] [FC8FD414] 03 71,5 [CE3F2DFF] [7C747C2E] 04 50,6 [C6CE6F28] [DE9393B7] 05 62,0 [D688CEDD] [A7EB07C0] 06 67,1 [2E3E7BD3] [9DEB209D] 07 63,7 [A85DAA0B] [08514A47] 08 47,6 [41418D2D] [1027E4DC] 09 63,1 [E66A0C7E] [763DB35E] 10 68,1 [BF7B5F5D] [242DDBC3] 11 68,0 [C6D3B35F] [7609EA3D] 12 100,0 [B9278114] [98190130] 13 77,4 [664F9575] [4EF87AA0] 14 73,5 [2FE0E49C] [1498C77E] 15 99,3 [ED1C76DD] [A7A6297B] 16 76,9 [E6FC43BE] [6FAEDFFF] 17 100,0 [88A56216] [1A580AE2] 18 64,4 [D3C4286E] [291B80D3] 19 61,8 [5ADBBD9B] [ED60E443] 20 38,4 [5C3A2407] [FEFD27C1] 21 48,7 [AC6B28DD] [0C435306] 22 45,9 [01AF52C4] [D49FF529] 23 76,2 [61CC855C] [F918BB3C]


Трекер:  [ 28-Янв-2012 07:19 ]

  

Скачать .torrent

Размер .torrent файла 22 KB


Размер: 252 MB
Хэш (hash) релиза: cd0d6ef0e928ef0ea439ceb3cd50d4b23da6d003

Еще никто не оставлял запись к записи скачать торрент Jelly Roll Morton — The Pearls — 1988, FLAC . Будь первым!

!Обратная связь