Скачать через торрент музыку John Pizzarelli — Meets The Beatles — 1998, FLAC бесплатно без регистрации torrent

Если у вас наблюдаются проблемы со скриншотами, переходом по ссылками, скачиванием торрентов - проблемы в блокировщике рекламы AdBlock. #хорошегоДня!


Статистика раздачи
Размер:  263 MB   |    Зарегистрирован:  5 лет 8 месяцев   |    .torrent скачан:  46 раз   |   
Раздают:  1  
   
Загрузка...
 
Автор Сообщение

Umakiro

avatar Umakiro


John Pizzarelli – Meets The Beatles

Жанр: Vocal Jazz
Год издания диска: 1998
Издатель (лейбл): RCA
Аудиокодек: FLAC (*.flac)
Тип рипа: image+.cue
Битрейт аудио: lossless
Продолжительность: 46:02
Источник (релизер): найдено в сети
Наличие сканов в содержимом раздачи: нет

Треклист:
01. Can't Buy Me Love (3:37)
02. I've Just Seen A Face (2:48)
03. Here Comes The Sun (5:05)
04. Things We Said Today (4:16)
05. You've Got To Hide Your Love Away (3:27)
06. Eleanor Rigby (5:03)
07. And I Love Her (3:57)
08. When I'm 64 (2:45)
09. Oh Darling (4:04)
10. Get Back (4:01)
11. Long And Winding Road (3:46)
12. For No One (3:12)

Rec.: Nola Recording Studio, New York City, NY.
 
 
Exact Audio Copy V1.0 beta 1 from 15. November 2010

EAC extraction logfile from 20. February 2011, 11:32

John Pizzarelli / Meets The Beatles

Used drive : HL-DT-STDVDRAM GT20N Adapter: 0 ID: 0

Read mode : SecureUtilize accurate stream : YesDefeat audio cache : YesMake use of C2 pointers : No

Read offset correction : 667Overread into Lead-In and Lead-Out : NoFill up missing offset samples with silence : YesDelete leading and trailing silent blocks : NoNull samples used in CRC calculations : YesUsed interface : Installed external ASPI interface

Used output format : Internal WAV RoutinesSample format : 44.100 Hz; 16 Bit; Stereo

TOC of the extracted CD

Track | Start | Length | Start sector | End sector --------------------------------------------------------- 1 | 0:00.00 | 3:37.27 | 0 | 16301 2 | 3:37.27 | 2:48.25 | 16302 | 28926 3 | 6:25.52 | 5:04.38 | 28927 | 51764 4 | 11:30.15 | 4:16.02 | 51765 | 70966 5 | 15:46.17 | 3:27.10 | 70967 | 86501 6 | 19:13.27 | 5:03.15 | 86502 | 109241 7 | 24:16.42 | 3:56.70 | 109242 | 127011 8 | 28:13.37 | 2:45.05 | 127012 | 139391 9 | 30:58.42 | 4:04.20 | 139392 | 157711 10 | 35:02.62 | 4:01.05 | 157712 | 175791 11 | 39:03.67 | 3:46.33 | 175792 | 192774 12 | 42:50.25 | 3:11.72 | 192775 | 207171

Range status and errors

Selected range

Filename D:\EAC\John Pizzarelli - Meets The Beatles\John Pizzarelli - Meets The Beatles.wav

Peak level 83.3 % Extraction speed 0.2 X Range quality 100.0 % Test CRC 84944EEF Copy CRC 84944EEF Copy OK

No errors occurred

AccurateRip summary

Track 1 cannot be verified as accurate (confidence 5) [B6C8A0F1], AccurateRip returned [C47612B1]Track 2 cannot be verified as accurate (confidence 5) [F0324634], AccurateRip returned [7D686544]Track 3 cannot be verified as accurate (confidence 5) [AFFE7B67], AccurateRip returned [DDB0DB54]Track 4 cannot be verified as accurate (confidence 5) [FD8CFE8B], AccurateRip returned [0FE9AEB2]Track 5 cannot be verified as accurate (confidence 5) [DD3B5539], AccurateRip returned [C00AAF09]Track 6 cannot be verified as accurate (confidence 5) [F1601A96], AccurateRip returned [01DDC0E2]Track 7 cannot be verified as accurate (confidence 5) [6ECECCF9], AccurateRip returned [AF768F98]Track 8 cannot be verified as accurate (confidence 5) [2AB210AA], AccurateRip returned [B6F44BD8]Track 9 cannot be verified as accurate (confidence 5) [A344D19E], AccurateRip returned [1429A39C]Track 10 cannot be verified as accurate (confidence 5) [2C36CE39], AccurateRip returned [3D683525]Track 11 cannot be verified as accurate (confidence 5) [2848BF5E], AccurateRip returned [723C3D70]Track 12 cannot be verified as accurate (confidence 5) [BA8F1679], AccurateRip returned [00664635]

No tracks could be verified as accurateYou may have a different pressing from the one(s) in the database

End of status report
 
REM GENRE JazzREM DATE 1998REM DISCID AD0ACA0CREM COMMENT "ExactAudioCopy v1.0b1"PERFORMER "John Pizzarelli"TITLE "Meets The Beatles"FILE "John Pizzarelli - Meets The Beatles.flac" WAVE TRACK 01 AUDIO TITLE "Can't Buy Me Love" PERFORMER "John Pizzarelli" ISRC USRC19807337 INDEX 01 00:00:00 TRACK 02 AUDIO TITLE "I've Just Seen A Face" PERFORMER "John Pizzarelli" ISRC USRC19807340 INDEX 00 03:34:00 INDEX 01 03:37:27 TRACK 03 AUDIO TITLE "Here Comes The Sun" PERFORMER "John Pizzarelli" ISRC USRC19807339 INDEX 00 06:22:57 INDEX 01 06:25:52 TRACK 04 AUDIO TITLE "Things We Said Today" PERFORMER "John Pizzarelli" ISRC USRC19807338 INDEX 00 11:27:25 INDEX 01 11:30:15 TRACK 05 AUDIO TITLE "You've Got To Hide Your Love Away" PERFORMER "John Pizzarelli" ISRC USRC19807346 INDEX 00 15:42:65 INDEX 01 15:46:17 TRACK 06 AUDIO TITLE "Eleanor Rigby" PERFORMER "John Pizzarelli" ISRC USRC19807342 INDEX 00 19:10:02 INDEX 01 19:13:27 TRACK 07 AUDIO TITLE "And I Love Her" PERFORMER "John Pizzarelli" ISRC USRC19807341 INDEX 00 24:13:20 INDEX 01 24:16:42 TRACK 08 AUDIO TITLE "When I'm 64" PERFORMER "John Pizzarelli" ISRC USRC19807344 INDEX 00 28:10:45 INDEX 01 28:13:37 TRACK 09 AUDIO TITLE "Oh Darling" PERFORMER "John Pizzarelli" ISRC USRC19807343 INDEX 00 30:55:45 INDEX 01 30:58:42 TRACK 10 AUDIO TITLE "Get Back" PERFORMER "John Pizzarelli" ISRC USRC19807347 INDEX 00 34:59:42 INDEX 01 35:02:62 TRACK 11 AUDIO TITLE "Long And Winding Road" PERFORMER "John Pizzarelli" ISRC USRC19807348 INDEX 00 38:59:70 INDEX 01 39:03:67 TRACK 12 AUDIO TITLE "For No One" PERFORMER "John Pizzarelli" ISRC USRC19808415 INDEX 00 42:46:22 INDEX 01 42:50:25
 
[CUETools log; Date: 10.01.2012 1:38:26; Version: 2.0.9][CTDB TOCID: sLK6yTfI92EkVHxzJotYg0TYUMI-] disk not present in database.[AccurateRip ID: 0014ce68-00c29853-ad0aca0c] found.Track [ CRC ] Status 01 [b6c8a0f1] (0/9) No match 02 [f0324634] (0/9) No match 03 [affe7b67] (0/9) No match 04 [fd8cfe8b] (0/9) No match 05 [dd3b5539] (0/9) No match 06 [f1601a96] (0/9) No match 07 [6ececcf9] (0/9) No match 08 [2ab210aa] (0/9) No match 09 [a344d19e] (0/9) No match 10 [2c36ce39] (0/9) No match 11 [2848bf5e] (0/9) No match 12 [ba8f1679] (0/7) No match

Track Peak [ CRC32 ] [W/O NULL] [ LOG ] -- 83,3 [84944EEF] [A3B3D903] CRC32 01 83,1 [CC562A77] [978ED4F0] 02 83,1 [B707D3B6] [1F0B57DC] 03 83,1 [FD7F8B13] [A2B85C06] 04 83,3 [BD431714] [72683AF0] 05 70,3 [DEBC26EF] [BD3889A0] 06 77,2 [7A0DE531] [E1146945] 07 72,7 [522330C1] [D9A5ACD9] 08 72,5 [B7F6FC8C] [CE23BEB9] 09 77,6 [BBCEB418] [7632E6EF] 10 77,1 [A17D2EE3] [A245E9F3] 11 71,7 [32FED89A] [319103DF] 12 68,4 [AF21DE79] [FA457D69]
John Pizzarelli (vocals, guitar); Karen Karlsrud, Barry Finclair, Lisa Matricardi, Laura Oatts, Rick Dolan, Joel Pitchon, Belinda Whitney-Barratt, Xin Zhao, Evan Johnson, Alfred Brown , Sanford Allen, Laura Seaton, Richard Sortomme, Avril Brown, Max Ellen (violin); Kenneth Burward-Hoy, Leslie Tomkins, Mitsue Takayama, Maxine Roach, Juliet Haffner, Liuh-Wen Ting (viola); Melissa Meel, Chungsun Kim, Adam Grabois, Stephanie Cummins, Jeanne LeBlanc, Jesse Levy (cello); Don Sebesky (strings, flute, accordion); Ken Peplowski (clarinet); Andy Fusco (saxophone, alto saxophone); Chuck Wilson, Gary Keller, Kenny Berger (saxophone); Harry Allen (tenor saxophone); Barry Ries, Tony Kadleck, Ron Tooley, Jim O'Connor (trumpet); Peter Gordon (French horn); Allen Ralph, Jim Pugh, Wayne Andre, John Mosca (trombone); Tony Tedesco (drums); Sammy Figueroa (percussion).

Arrangers: Don Sebesky; John Pizzarelli.


Трекер:  [ 28-Янв-2012 07:18 ]

  

Скачать .torrent

Размер .torrent файла 11 KB


Размер: 263 MB
Хэш (hash) релиза: 8b44c9148a7d5ab8e15d4840458c6af337ad55df

Еще никто не оставлял запись к записи скачать торрент John Pizzarelli — Meets The Beatles — 1998, FLAC . Будь первым!

!Обратная связь