Скачать через торрент музыку John Pizzarelli — Our Love Is Here To Stay — 1997, FLAC бесплатно без регистрации torrent

Если у вас наблюдаются проблемы со скриншотами, переходом по ссылками, скачиванием торрентов - проблемы в блокировщике рекламы AdBlock. #хорошегоДня!


Статистика раздачи
Размер:  275 MB   |    Зарегистрирован:  5 лет 8 месяцев   |    .torrent скачан:  36 раз   |   
Раздают:  1  
   
Загрузка...
 
Автор Сообщение

Umakiro

avatar Umakiro


John Pizzarelli – Our Love Is Here To Stay

Жанр: Vocal Jazz
Год издания диска: 1997
Издатель (лейбл): RCA
Номер по каталогу: 67501-2
Аудиокодек: FLAC (*.flac)
Тип рипа: tracks+.cue
Битрейт аудио: lossless
Продолжительность: 46:14
Источник (релизер): найдено в сети
Наличие сканов в содержимом раздачи: нет

Треклист:
01. Dream (2:49)
02. Our Love Is Here To Stay (5:09)
03. Avalon (4:51)
04. Honey Pie (4:30)
05. The Day I Found You ('The Pollywog Song') (2:58)
06. Kalamazoo (3:32)
07. Have Another One, Not Me (4:05)
08. Little Girl (4:34)
09. Nina Never Knew (3:02)
10. Rhythm Is Our Business (3:24)
11. It's Sunday (3:02)
12. Say Hey Kid (4:16)

Personnel:
John Pizzarelli - vocals, guitar
Martin Pizzarelli - double-bass
Ray Kennedy - piano
The Don Sebesky New York All Star Band

Recorded February 1997.
 
 
Exact Audio Copy V0.99 prebeta 5 from 4. May 2009

EAC extraction logfile from 14. September 2010, 22:35

John Pizzarelli / Our Love Is Here To Stay

Used drive : _NEC DVD_RW ND-3540A Adapter: 2 ID: 0

Read mode : SecureUtilize accurate stream : YesDefeat audio cache : YesMake use of C2 pointers : No

Read offset correction : 48Overread into Lead-In and Lead-Out : NoFill up missing offset samples with silence : YesDelete leading and trailing silent blocks : NoNull samples used in CRC calculations : NoUsed interface : Native Win32 interface for Win NT & 2000Gap handling : Appended to previous track

Used output format : User Defined EncoderSelected bitrate : 320 kBit/sQuality : HighAdd ID3 tag : NoCommand line compressor : D:\Program Files\Exact Audio Copy\Flac\flac.exeAdditional command line options : -V -8 -T "artist=%a" -T "title=%t" -T "album=%g" -T "date=%y" -T "tracknumber=%n" -T "genre=%m" %s

TOC of the extracted CD

Track | Start | Length | Start sector | End sector --------------------------------------------------------- 1 | 0:00.00 | 2:49.25 | 0 | 12699 2 | 2:49.25 | 5:09.12 | 12700 | 35886 3 | 7:58.37 | 4:50.65 | 35887 | 57701 4 | 12:49.27 | 4:29.63 | 57702 | 77939 5 | 17:19.15 | 2:58.37 | 77940 | 91326 6 | 20:17.52 | 3:32.25 | 91327 | 107251 7 | 23:50.02 | 4:05.08 | 107252 | 125634 8 | 27:55.10 | 4:34.02 | 125635 | 146186 9 | 32:29.12 | 3:02.33 | 146187 | 159869 10 | 35:31.45 | 3:24.07 | 159870 | 175176 11 | 38:55.52 | 3:01.55 | 175177 | 188806 12 | 41:57.32 | 4:16.18 | 188807 | 208024

Track 1

Filename D:\Documents\My Documents\FLAC\John Pizzarelli\Our Love Is Here To Stay\01. John Pizzarelli - Dream.wav

Pre-gap length 0:00:02.00

Peak level 100.0 % Track quality 99.9 % Test CRC E4EE2E3A Copy CRC E4EE2E3A Accurately ripped (confidence 8) [616972FF] Copy OK

Track 2

Filename D:\Documents\My Documents\FLAC\John Pizzarelli\Our Love Is Here To Stay\02. John Pizzarelli - Our Love Is Here To Stay.wav

Pre-gap length 0:00:00.45

Peak level 99.9 % Track quality 99.9 % Test CRC F3CD4DFA Copy CRC F3CD4DFA Accurately ripped (confidence 8) [7C7BA42F] Copy OK

Track 3

Filename D:\Documents\My Documents\FLAC\John Pizzarelli\Our Love Is Here To Stay\03. John Pizzarelli - Avalon.wav

Pre-gap length 0:00:00.10

Peak level 99.3 % Track quality 99.9 % Test CRC F926097A Copy CRC F926097A Accurately ripped (confidence 8) [C5439315] Copy OK

Track 4

Filename D:\Documents\My Documents\FLAC\John Pizzarelli\Our Love Is Here To Stay\04. John Pizzarelli - Honey Pie.wav

Peak level 100.0 % Track quality 100.0 % Test CRC 2FE88421 Copy CRC 2FE88421 Accurately ripped (confidence 8) [F579158C] Copy OK

Track 5

Filename D:\Documents\My Documents\FLAC\John Pizzarelli\Our Love Is Here To Stay\05. John Pizzarelli - The Day I Found You ('The Pollywog Song').wav

Pre-gap length 0:00:00.43

Peak level 90.4 % Track quality 100.0 % Test CRC F77E41D2 Copy CRC F77E41D2 Accurately ripped (confidence 8) [9807A1F7] Copy OK

Track 6

Filename D:\Documents\My Documents\FLAC\John Pizzarelli\Our Love Is Here To Stay\06. John Pizzarelli - Kalamazoo.wav

Pre-gap length 0:00:00.20

Peak level 100.0 % Track quality 100.0 % Test CRC 5E903C53 Copy CRC 5E903C53 Accurately ripped (confidence 8) [81F6B221] Copy OK

Track 7

Filename D:\Documents\My Documents\FLAC\John Pizzarelli\Our Love Is Here To Stay\07. John Pizzarelli - Have Another One, Not Me.wav

Pre-gap length 0:00:00.35

Peak level 94.4 % Track quality 100.0 % Test CRC 6E0292DD Copy CRC 6E0292DD Accurately ripped (confidence 8) [C3586463] Copy OK

Track 8

Filename D:\Documents\My Documents\FLAC\John Pizzarelli\Our Love Is Here To Stay\08. John Pizzarelli - Little Girl.wav

Pre-gap length 0:00:00.03

Peak level 99.8 % Track quality 100.0 % Test CRC 75F08E5B Copy CRC 75F08E5B Accurately ripped (confidence 8) [B8BB7768] Copy OK

Track 9

Filename D:\Documents\My Documents\FLAC\John Pizzarelli\Our Love Is Here To Stay\09. John Pizzarelli - Nina Never Knew.wav

Pre-gap length 0:00:00.17

Peak level 85.6 % Track quality 100.0 % Test CRC 26FF3DA0 Copy CRC 26FF3DA0 Accurately ripped (confidence 8) [E29E5C85] Copy OK

Track 10

Filename D:\Documents\My Documents\FLAC\John Pizzarelli\Our Love Is Here To Stay\10. John Pizzarelli - Rhythm Is Our Business.wav

Pre-gap length 0:00:00.18

Peak level 100.0 % Track quality 100.0 % Test CRC 8AEDE4F7 Copy CRC 8AEDE4F7 Accurately ripped (confidence 8) [2156031D] Copy OK

Track 11

Filename D:\Documents\My Documents\FLAC\John Pizzarelli\Our Love Is Here To Stay\11. John Pizzarelli - It's Sunday.wav

Pre-gap length 0:00:00.12

Peak level 62.3 % Track quality 100.0 % Test CRC CBC78305 Copy CRC CBC78305 Accurately ripped (confidence 8) [305FDFBB] Copy OK

Track 12

Filename D:\Documents\My Documents\FLAC\John Pizzarelli\Our Love Is Here To Stay\12. John Pizzarelli - Say Hey Kid.wav

Pre-gap length 0:00:00.45

Peak level 99.6 % Track quality 100.0 % Test CRC 70855692 Copy CRC 70855692 Accurately ripped (confidence 7) [99EE3E85] Copy OK

All tracks accurately ripped

No errors occurred

End of status report
 
REM DATE 1997REM DISCID 910AD50CREM COMMENT "ExactAudioCopy v0.99pb5"PERFORMER "John Pizzarelli"TITLE "Our Love Is Here To Stay"FILE "01. Dream.flac" WAVE TRACK 01 AUDIO TITLE "Dream" PERFORMER "John Pizzarelli" INDEX 01 00:00:00 TRACK 02 AUDIO TITLE "Our Love Is Here To Stay" PERFORMER "John Pizzarelli" INDEX 00 02:48:55FILE "02. Our Love Is Here To Stay.flac" WAVE INDEX 01 00:00:00 TRACK 03 AUDIO TITLE "Avalon" PERFORMER "John Pizzarelli" INDEX 00 05:09:02FILE "03. Avalon.flac" WAVE INDEX 01 00:00:00FILE "04. Honey Pie.flac" WAVE TRACK 04 AUDIO TITLE "Honey Pie" PERFORMER "John Pizzarelli" INDEX 01 00:00:00 TRACK 05 AUDIO TITLE "The Day I Found You ('The Pollywog Song')" PERFORMER "John Pizzarelli" INDEX 00 04:29:20FILE "05. The Day I Found You ('The Pollywog Song').flac" WAVE INDEX 01 00:00:00 TRACK 06 AUDIO TITLE "Kalamazoo" PERFORMER "John Pizzarelli" INDEX 00 02:58:17FILE "06. Kalamazoo.flac" WAVE INDEX 01 00:00:00 TRACK 07 AUDIO TITLE "Have Another One, Not Me" PERFORMER "John Pizzarelli" INDEX 00 03:31:65FILE "07. Have Another One, Not Me.flac" WAVE INDEX 01 00:00:00 TRACK 08 AUDIO TITLE "Little Girl" PERFORMER "John Pizzarelli" INDEX 00 04:05:05FILE "08. Little Girl.flac" WAVE INDEX 01 00:00:00 TRACK 09 AUDIO TITLE "Nina Never Knew" PERFORMER "John Pizzarelli" INDEX 00 04:33:60FILE "09. Nina Never Knew.flac" WAVE INDEX 01 00:00:00 TRACK 10 AUDIO TITLE "Rhythm Is Our Business" PERFORMER "John Pizzarelli" INDEX 00 03:02:15FILE "10. Rhythm Is Our Business.flac" WAVE INDEX 01 00:00:00 TRACK 11 AUDIO TITLE "It's Sunday" PERFORMER "John Pizzarelli" INDEX 00 03:23:70FILE "11. It's Sunday.flac" WAVE INDEX 01 00:00:00 TRACK 12 AUDIO TITLE "Say Hey Kid" PERFORMER "John Pizzarelli" INDEX 00 03:01:10FILE "12. Say Hey Kid.flac" WAVE INDEX 01 00:00:00
 
[CUETools log; Date: 10.01.2012 1:05:18; Version: 2.0.9][CTDB TOCID: 0KwYAWs9kk6d9xS6mU24L_c9WXA-] disk not present in database.[AccurateRip ID: 0015280d-00c45c6b-910ad50c] found.Track [ CRC ] Status 01 [616972ff] (9/9) Accurately ripped 02 [7c7ba42f] (9/9) Accurately ripped 03 [c5439315] (9/9) Accurately ripped 04 [f579158c] (9/9) Accurately ripped 05 [9807a1f7] (9/9) Accurately ripped 06 [81f6b221] (9/9) Accurately ripped 07 [c3586463] (9/9) Accurately ripped 08 [b8bb7768] (9/9) Accurately ripped 09 [e29e5c85] (9/9) Accurately ripped 10 [2156031d] (9/9) Accurately ripped 11 [305fdfbb] (9/9) Accurately ripped 12 [99ee3e85] (8/8) Accurately ripped

Track Peak [ CRC32 ] [W/O NULL] [ LOG ] -- 100,0 [B40E1390] [CDCC6254] 01 100,0 [D61C93AF] [E4EE2E3A] W/O NULL 02 99,9 [A4ECA3C3] [F3CD4DFA] W/O NULL 03 99,3 [9F259F0A] [F926097A] W/O NULL 04 100,0 [A62F6363] [2FE88421] W/O NULL 05 90,4 [472AF056] [F77E41D2] W/O NULL 06 100,0 [F708865B] [5E903C53] W/O NULL 07 94,4 [68FAB4D6] [6E0292DD] W/O NULL 08 99,8 [542E1788] [75F08E5B] W/O NULL 09 85,6 [29F460D3] [26FF3DA0] W/O NULL 10 100,0 [7D2FA237] [8AEDE4F7] W/O NULL 11 62,3 [74D4F338] [CBC78305] W/O NULL 12 99,6 [1B954BBC] [70855692] W/O NULL


Трекер:  [ 28-Янв-2012 07:18 ]

  

Скачать .torrent

Размер .torrent файла 12 KB


Размер: 275 MB
Хэш (hash) релиза: bdc8d24ac5971f85e60da3505bf7fb4f8e89a7f9

Еще никто не оставлял запись к записи скачать торрент John Pizzarelli — Our Love Is Here To Stay — 1997, FLAC . Будь первым!

!Обратная связь