Скачать через торрент музыку Lisa Ono — Ono Lisa: Boas Festas — 2000, FLAC бесплатно без регистрации torrent

Если у вас наблюдаются проблемы со скриншотами, переходом по ссылками, скачиванием торрентов - проблемы в блокировщике рекламы AdBlock. #хорошегоДня!


Статистика раздачи
Размер:  268 MB   |    Зарегистрирован:  5 лет 8 месяцев   |    .torrent скачан:  39 раз   |   
Раздают:  1  
   
Загрузка...
 
Автор Сообщение

Umakiro

avatar Umakiro


Lisa Ono – Ono Lisa: Boas Festas

Жанр: Vocal Jazz, Christmas
Страна-производитель диска: Japan
Год издания диска: 2000
Издатель (лейбл): Toshiba/EMI
Номер по каталогу: TOCT-24460
Аудиокодек: FLAC (*.flac)
Тип рипа: tracks+.cue
Битрейт аудио: lossless
Продолжительность: 46:54
Источник (релизер): вата
Наличие сканов в содержимом раздачи: сетевые картинки

Треклист:
01. Winter Wonderland (2:59)
02. Depois Do Natal (2:58)
03. Let It Snow! Let It Snow! Let It Snow! (3:48)
04. Caroling, Caroling (3:56)
05. Jingle Bell Rock (2:20)
06. White Christmas (3:48)
07. Paz Azul (3:39)
08. Ave Maria (3:56)
09. The Christmas Song (3:41)
10. Boas Festas (4:44)
11. Um Anjo Do Ceu (5:27)
12. In The Wee Small Hours Of The Morning / When You Wish Upon A Star (4:37)
13. Silent Night (1:00)
 
 
Exact Audio Copy V0.99 prebeta 4 from 23. January 2008

EAC extraction logfile from 25. April 2009, 14:33

Lisa Ono / Boas Festas

Used drive : TSSTcorpCD/DVDW SH-S182M Adapter: 3 ID: 0

Read mode : SecureUtilize accurate stream : YesDefeat audio cache : YesMake use of C2 pointers : No

Read offset correction : 6Overread into Lead-In and Lead-Out : NoFill up missing offset samples with silence : YesDelete leading and trailing silent blocks : NoNull samples used in CRC calculations : YesUsed interface : Native Win32 interface for Win NT & 2000Gap handling : Appended to previous track

Used output format : User Defined EncoderSelected bitrate : 128 kBit/sQuality : HighAdd ID3 tag : NoCommand line compressor : C:\Program Files\Exact Audio Copy\Flac\flac.exeAdditional command line options : -8 -V -T "ARTIST=%a" -T "TITLE=%t" -T "ALBUM=%g" -T "DATE=%y" -T "TRACKNUMBER=%n" -T "GENRE=%m" -T "COMMENT=EAC FLAC -8" %s

TOC of the extracted CD

Track | Start | Length | Start sector | End sector --------------------------------------------------------- 1 | 0:00.00 | 2:58.40 | 0 | 13389 2 | 2:58.40 | 2:57.72 | 13390 | 26736 3 | 5:56.37 | 3:48.00 | 26737 | 43836 4 | 9:44.37 | 3:56.00 | 43837 | 61536 5 | 13:40.37 | 2:20.05 | 61537 | 72041 6 | 16:00.42 | 3:47.73 | 72042 | 89139 7 | 19:48.40 | 3:38.70 | 89140 | 105559 8 | 23:27.35 | 3:56.10 | 105560 | 123269 9 | 27:23.45 | 3:41.00 | 123270 | 139844 10 | 31:04.45 | 4:44.35 | 139845 | 161179 11 | 35:49.05 | 5:27.32 | 161180 | 185736 12 | 41:16.37 | 4:37.08 | 185737 | 206519 13 | 45:53.45 | 1:00.07 | 206520 | 211026

Track 1

Filename I:\What.cd Up.Down\Lisa Ono - 2000 - Boas Festas\01 - Winter Wonderland.wav

Pre-gap length 0:00:02.00

Peak level 97.9 % Track quality 100.0 % Test CRC F25BD544 Copy CRC F25BD544 Copy OK

Track 2

Filename I:\What.cd Up.Down\Lisa Ono - 2000 - Boas Festas\02 - Depois Do Natal.wav

Pre-gap length 0:00:04.39

Peak level 97.9 % Track quality 99.9 % Test CRC A3D82885 Copy CRC A3D82885 Copy OK

Track 3

Filename I:\What.cd Up.Down\Lisa Ono - 2000 - Boas Festas\03 - Let It Snow, Let It Snow, Let It Snow (E O Amor, E O Amor, E O Amor).wav

Pre-gap length 0:00:03.73

Peak level 97.9 % Track quality 100.0 % Test CRC 4C32A082 Copy CRC 4C32A082 Copy OK

Track 4

Filename I:\What.cd Up.Down\Lisa Ono - 2000 - Boas Festas\04 - Caroling Caroling.wav

Pre-gap length 0:00:02.54

Peak level 97.9 % Track quality 100.0 % Test CRC D7E79E0C Copy CRC D7E79E0C Copy OK

Track 5

Filename I:\What.cd Up.Down\Lisa Ono - 2000 - Boas Festas\05 - Jingle Bell Rock.wav

Pre-gap length 0:00:03.14

Peak level 97.9 % Track quality 100.0 % Test CRC C4424AF1 Copy CRC C4424AF1 Copy OK

Track 6

Filename I:\What.cd Up.Down\Lisa Ono - 2000 - Boas Festas\06 - White Christmas (Noite de Natal).wav

Pre-gap length 0:00:04.02

Peak level 97.9 % Track quality 100.0 % Test CRC 80537B9B Copy CRC 80537B9B Copy OK

Track 7

Filename I:\What.cd Up.Down\Lisa Ono - 2000 - Boas Festas\07 - Paz Azul (Brahms Lullaby).wav

Pre-gap length 0:00:01.74

Peak level 97.9 % Track quality 100.0 % Test CRC D2461C5B Copy CRC D2461C5B Copy OK

Track 8

Filename I:\What.cd Up.Down\Lisa Ono - 2000 - Boas Festas\08 - Ave Maria.wav

Pre-gap length 0:00:04.38

Peak level 97.9 % Track quality 100.0 % Test CRC 1C44464D Copy CRC 1C44464D Copy OK

Track 9

Filename I:\What.cd Up.Down\Lisa Ono - 2000 - Boas Festas\09 - The Christmas Song.wav

Pre-gap length 0:00:02.65

Peak level 97.9 % Track quality 100.0 % Test CRC 24681358 Copy CRC 24681358 Copy OK

Track 10

Filename I:\What.cd Up.Down\Lisa Ono - 2000 - Boas Festas\10 - Boas Festas.wav

Pre-gap length 0:00:03.55

Peak level 97.9 % Track quality 100.0 % Test CRC 150571F6 Copy CRC 150571F6 Copy OK

Track 11

Filename I:\What.cd Up.Down\Lisa Ono - 2000 - Boas Festas\11 - Um Anjo Do Ceu.wav

Pre-gap length 0:00:02.34

Peak level 97.9 % Track quality 99.9 % Test CRC 8870E3FF Copy CRC 8870E3FF Copy OK

Track 12

Filename I:\What.cd Up.Down\Lisa Ono - 2000 - Boas Festas\12 - In The Wee Small Hours Of The Morning - When You Wish Upon A Star (Se Uma Extrela Aparecer).wav

Pre-gap length 0:00:01.27

Peak level 97.9 % Track quality 100.0 % Test CRC 3BAA62F6 Copy CRC 3BAA62F6 Copy OK

Track 13

Filename I:\What.cd Up.Down\Lisa Ono - 2000 - Boas Festas\13 - Silent Night (Traditional).wav

Pre-gap length 0:00:03.67

Peak level 52.5 % Track quality 99.8 % Test CRC D8F9F897 Copy CRC D8F9F897 Copy OK

No errors occurred

End of status report
 
REM GENRE JazzREM DATE 2000REM DISCID BA0AFD0DREM COMMENT "ExactAudioCopy v0.99pb4"PERFORMER "Lisa Ono"TITLE "Boas Festas"FILE "01. Winter Wonderland.flac" WAVE TRACK 01 AUDIO TITLE "Winter Wonderland" PERFORMER "Lisa Ono" INDEX 01 00:00:00 TRACK 02 AUDIO TITLE "Depois Do Natal" PERFORMER "Lisa Ono" INDEX 00 02:53:71FILE "02. Depois Do Natal.flac" WAVE INDEX 01 00:00:00 TRACK 03 AUDIO TITLE "Let It Snow! Let It Snow! Let It Snow!" PERFORMER "Lisa Ono" INDEX 00 02:54:02FILE "03. Let It Snow! Let It Snow! Let It Snow!.flac" WAVE INDEX 01 00:00:00 TRACK 04 AUDIO TITLE "Caroling, Caroling" PERFORMER "Lisa Ono" INDEX 00 03:45:16FILE "04. Caroling, Caroling.flac" WAVE INDEX 01 00:00:00 TRACK 05 AUDIO TITLE "Jingle Bell Rock" PERFORMER "Lisa Ono" INDEX 00 03:52:65FILE "05. Jingle Bell Rock.flac" WAVE INDEX 01 00:00:00 TRACK 06 AUDIO TITLE "White Christmas" PERFORMER "Lisa Ono" INDEX 00 02:16:08FILE "06. White Christmas.flac" WAVE INDEX 01 00:00:00 TRACK 07 AUDIO TITLE "Paz Azul" PERFORMER "Lisa Ono" INDEX 00 03:46:04FILE "07. Paz Azul.flac" WAVE INDEX 01 00:00:00 TRACK 08 AUDIO TITLE "Ave Maria" PERFORMER "Lisa Ono" INDEX 00 03:34:33FILE "08. Ave Maria.flac" WAVE INDEX 01 00:00:00 TRACK 09 AUDIO TITLE "The Christmas Song" PERFORMER "Lisa Ono" INDEX 00 03:53:14FILE "09. The Christmas Song.flac" WAVE INDEX 01 00:00:00 TRACK 10 AUDIO TITLE "Boas Festas" PERFORMER "Lisa Ono" INDEX 00 03:37:21FILE "10. Boas Festas.flac" WAVE INDEX 01 00:00:00 TRACK 11 AUDIO TITLE "Um Anjo Do Ceu" PERFORMER "Lisa Ono" INDEX 00 04:42:04FILE "11. Um Anjo Do Ceu.flac" WAVE INDEX 01 00:00:00 TRACK 12 AUDIO TITLE "In The Wee Small Hours Of The Morning / When You Wish Upon A Star" PERFORMER "Lisa Ono" INDEX 00 05:25:74FILE "12. In The Wee Small Hours Of The Morning....flac" WAVE INDEX 01 00:00:00 TRACK 13 AUDIO TITLE "Silent Night" PERFORMER "Lisa Ono" INDEX 00 04:33:14FILE "13. Silent Night.flac" WAVE INDEX 01 00:00:00
 
AUDIOCHECKER v2.0 beta (build 457) - by Dester - opdester@freemail.hu~~~~~~~~~~~~~~~~~~~~~~~~~~~~~~~~~~-=== DO NOT EDIT THIS FILE! ===-

Path: ...\ оформля 2000. Lisa Ono - Boas Festas

01 -=- 01. Winter Wonderland.flac -=- CDDA (99%)02 -=- 02. Depois Do Natal.flac -=- CDDA (99%)03 -=- 03. Let It Snow! Let It Snow! Let It Snow!.flac -=- CDDA (99%)04 -=- 04. Caroling, Caroling.flac -=- CDDA (100%)05 -=- 05. Jingle Bell Rock.flac -=- CDDA (99%)06 -=- 06. White Christmas.flac -=- CDDA (100%)07 -=- 07. Paz Azul.flac -=- CDDA (100%)08 -=- 08. Ave Maria.flac -=- CDDA (100%)09 -=- 09. The Christmas Song.flac -=- CDDA (100%)10 -=- 10. Boas Festas.flac -=- CDDA (100%)11 -=- 11. Um Anjo Do Ceu.flac -=- CDDA (100%)12 -=- 12. In The Wee Small Hours Of The Morning....flac -=- CDDA (99%)13 -=- 13. Silent Night.flac -=- CDDA (99%)

Summary 99,54% CDDA

141362804


Трекер:  [ 28-Янв-2012 07:17 ]

  

Скачать .torrent

Размер .torrent файла 12 KB


Размер: 268 MB
Хэш (hash) релиза: 0f0506a30aa8e1aa6335d8b32f7a753860ec0307

Еще никто не оставлял запись к записи скачать торрент Lisa Ono — Ono Lisa: Boas Festas — 2000, FLAC . Будь первым!

!Обратная связь